  0
SECTION
  2
HEADER
  9
$ACADVER
  1
AC1015
  9
$ACADMAINTVER
 70
     6
  9
$DWGCODEPAGE
  3
ANSI_1252
  9
$INSBASE
 10
0.0
 20
0.0
 30
0.0
  9
$EXTMIN
 10
0.0
 20
0.0
 30
0.0
  9
$EXTMAX
 10
210.0
 20
297.0
 30
0.0
  9
$LIMMIN
 10
0.0
 20
0.0
  9
$LIMMAX
 10
210.0
 20
297.0
  9
$ORTHOMODE
 70
     0
  9
$REGENMODE
 70
     1
  9
$FILLMODE
 70
     1
  9
$QTEXTMODE
 70
     0
  9
$MIRRTEXT
 70
     1
  9
$LTSCALE
 40
1.0
  9
$ATTMODE
 70
     1
  9
$TEXTSIZE
 40
3.5
  9
$TRACEWID
 40
1.0
  9
$TEXTSTYLE
  7
Standard
  9
$CLAYER
  8
0
  9
$CELTYPE
  6
ByLayer
  9
$CECOLOR
 62
   256
  9
$CELTSCALE
 40
1.0
  9
$DISPSILH
 70
     0
  9
$DIMSCALE
 40
1.0
  9
$DIMASZ
 40
3.302
  9
$DIMEXO
 40
1.0
  9
$DIMDLI
 40
3.75
  9
$DIMRND
 40
0.0
  9
$DIMDLE
 40
0.0
  9
$DIMEXE
 40
1.0
  9
$DIMTP
 40
0.0
  9
$DIMTM
 40
0.0
  9
$DIMTXT
 40
3.5
  9
$DIMCEN
 40
2.5
  9
$DIMTSZ
 40
0.0
  9
$DIMTOL
 70
     0
  9
$DIMLIM
 70
     0
  9
$DIMTIH
 70
     1
  9
$DIMTOH
 70
     1
  9
$DIMSE1
 70
     0
  9
$DIMSE2
 70
     0
  9
$DIMTAD
 70
     1
  9
$DIMZIN
 70
     0
  9
$DIMBLK
  1

  9
$DIMASO
 70
     1
  9
$DIMSHO
 70
     1
  9
$DIMPOST
  1

  9
$DIMAPOST
  1

  9
$DIMALT
 70
     0
  9
$DIMALTD
 70
     3
  9
$DIMALTF
 40
0.0393700787
  9
$DIMLFAC
 40
1.0
  9
$DIMTOFL
 70
     1
  9
$DIMTVP
 40
0.0
  9
$DIMTIX
 70
     0
  9
$DIMSOXD
 70
     0
  9
$DIMSAH
 70
     0
  9
$DIMBLK1
  1

  9
$DIMBLK2
  1

  9
$DIMSTYLE
  2
ISO-25
  9
$DIMCLRD
 70
     0
  9
$DIMCLRE
 70
     0
  9
$DIMCLRT
 70
     0
  9
$DIMTFAC
 40
1.0
  9
$DIMGAP
 40
1.524
  9
$DIMJUST
 70
     0
  9
$DIMSD1
 70
     0
  9
$DIMSD2
 70
     0
  9
$DIMTOLJ
 70
     0
  9
$DIMTZIN
 70
     0
  9
$DIMALTZ
 70
     0
  9
$DIMALTTZ
 70
     0
  9
$DIMUPT
 70
     0
  9
$DIMDEC
 70
     2
  9
$DIMTDEC
 70
     2
  9
$DIMALTU
 70
     2
  9
$DIMALTTD
 70
     3
  9
$DIMTXSTY
  7
Standard
  9
$DIMAUNIT
 70
     0
  9
$DIMADEC
 70
     2
  9
$DIMALTRND
 40
0.0
  9
$DIMAZIN
 70
     0
  9
$DIMDSEP
 70
    44
  9
$DIMATFIT
 70
     3
  9
$DIMFRAC
 70
     0
  9
$DIMLDRBLK
  1

  9
$DIMLUNIT
 70
     2
  9
$DIMLWD
 70
    -2
  9
$DIMLWE
 70
    -2
  9
$DIMTMOVE
 70
     0
  9
$LUNITS
 70
     2
  9
$LUPREC
 70
     2
  9
$SKETCHINC
 40
1.0
  9
$FILLETRAD
 40
10.0
  9
$AUNITS
 70
     0
  9
$AUPREC
 70
     2
  9
$MENU
  1
.
  9
$ELEVATION
 40
0.0
  9
$PELEVATION
 40
0.0
  9
$THICKNESS
 40
0.0
  9
$LIMCHECK
 70
     0
  9
$CHAMFERA
 40
0.0
  9
$CHAMFERB
 40
0.0
  9
$CHAMFERC
 40
0.0
  9
$CHAMFERD
 40
0.0
  9
$SKPOLY
 70
     0
  9
$TDCREATE
 40
2459522.665678449
  9
$TDUCREATE
 40
2459522.624011782
  9
$TDUPDATE
 40
2459522.665683009
  9
$TDUUPDATE
 40
2459522.624016343
  9
$TDINDWG
 40
0.0000000116
  9
$TDUSRTIMER
 40
0.0000000116
  9
$USRTIMER
 70
     1
  9
$ANGBASE
 50
0.0
  9
$ANGDIR
 70
     0
  9
$PDMODE
 70
     0
  9
$PDSIZE
 40
-1.0
  9
$PLINEWID
 40
0.0
  9
$SPLFRAME
 70
     0
  9
$SPLINETYPE
 70
     6
  9
$SPLINESEGS
 70
     8
  9
$HANDSEED
  5
342
  9
$SURFTAB1
 70
     6
  9
$SURFTAB2
 70
     6
  9
$SURFTYPE
 70
     6
  9
$SURFU
 70
     6
  9
$SURFV
 70
     6
  9
$UCSBASE
  2

  9
$UCSNAME
  2

  9
$UCSORG
 10
0.0
 20
0.0
 30
0.0
  9
$UCSXDIR
 10
1.0
 20
0.0
 30
0.0
  9
$UCSYDIR
 10
0.0
 20
1.0
 30
0.0
  9
$UCSORTHOREF
  2

  9
$UCSORTHOVIEW
 70
     0
  9
$UCSORGTOP
 10
0.0
 20
0.0
 30
0.0
  9
$UCSORGBOTTOM
 10
0.0
 20
0.0
 30
0.0
  9
$UCSORGLEFT
 10
0.0
 20
0.0
 30
0.0
  9
$UCSORGRIGHT
 10
0.0
 20
0.0
 30
0.0
  9
$UCSORGFRONT
 10
0.0
 20
0.0
 30
0.0
  9
$UCSORGBACK
 10
0.0
 20
0.0
 30
0.0
  9
$PUCSBASE
  2

  9
$PUCSNAME
  2

  9
$PUCSORG
 10
0.0
 20
0.0
 30
0.0
  9
$PUCSXDIR
 10
1.0
 20
0.0
 30
0.0
  9
$PUCSYDIR
 10
0.0
 20
1.0
 30
0.0
  9
$PUCSORTHOREF
  2

  9
$PUCSORTHOVIEW
 70
     0
  9
$PUCSORGTOP
 10
0.0
 20
0.0
 30
0.0
  9
$PUCSORGBOTTOM
 10
0.0
 20
0.0
 30
0.0
  9
$PUCSORGLEFT
 10
0.0
 20
0.0
 30
0.0
  9
$PUCSORGRIGHT
 10
0.0
 20
0.0
 30
0.0
  9
$PUCSORGFRONT
 10
0.0
 20
0.0
 30
0.0
  9
$PUCSORGBACK
 10
0.0
 20
0.0
 30
0.0
  9
$USERI1
 70
     0
  9
$USERI2
 70
     0
  9
$USERI3
 70
     0
  9
$USERI4
 70
     0
  9
$USERI5
 70
     0
  9
$USERR1
 40
0.0
  9
$USERR2
 40
0.0
  9
$USERR3
 40
0.0
  9
$USERR4
 40
0.0
  9
$USERR5
 40
0.0
  9
$WORLDVIEW
 70
     1
  9
$SHADEDGE
 70
     3
  9
$SHADEDIF
 70
    70
  9
$TILEMODE
 70
     1
  9
$MAXACTVP
 70
    64
  9
$PINSBASE
 10
0.0
 20
0.0
 30
0.0
  9
$PLIMCHECK
 70
     0
  9
$PEXTMIN
 10
1.0000000000E+20
 20
1.0000000000E+20
 30
1.0000000000E+20
  9
$PEXTMAX
 10
-1.0000000000E+20
 20
-1.0000000000E+20
 30
-1.0000000000E+20
  9
$PLIMMIN
 10
0.0
 20
0.0
  9
$PLIMMAX
 10
420.0
 20
297.0
  9
$UNITMODE
 70
     0
  9
$VISRETAIN
 70
     1
  9
$PLINEGEN
 70
     0
  9
$PSLTSCALE
 70
     1
  9
$TREEDEPTH
 70
  3020
  9
$CMLSTYLE
  2
Standard
  9
$CMLJUST
 70
     0
  9
$CMLSCALE
 40
20.0
  9
$PROXYGRAPHICS
 70
     1
  9
$MEASUREMENT
 70
     1
  9
$CELWEIGHT
370
    -1
  9
$ENDCAPS
280
     0
  9
$JOINSTYLE
280
     0
  9
$LWDISPLAY
290
     1
  9
$INSUNITS
 70
     4
  9
$HYPERLINKBASE
  1

  9
$STYLESHEET
  1

  9
$XEDIT
290
     1
  9
$CEPSNTYPE
380
     0
  9
$PSTYLEMODE
290
     1
  9
$FINGERPRINTGUID
  2
{02646d2f-d040-4820-a27a-e1c879303b9b}
  9
$VERSIONGUID
  2
{FAEB1C32-E019-11D5-929B-00C0DF256EC4}
  9
$EXTNAMES
290
     1
  9
$PSVPSCALE
 40
0.0
  9
$OLESTARTUP
290
     0
  0
ENDSEC
  0
SECTION
  2
CLASSES
  0
CLASS
  1
ACDBDICTIONARYWDFLT
  2
AcDbDictionaryWithDefault
  3
ObjectDBX Classes
 90
        0
280
     0
281
     0
  0
CLASS
  1
VISUALSTYLE
  2
AcDbVisualStyle
  3
ObjectDBX Classes
 90
     4095
280
     0
281
     0
  0
CLASS
  1
MATERIAL
  2
AcDbMaterial
  3
ObjectDBX Classes
 90
     1153
280
     0
281
     0
  0
CLASS
  1
SCALE
  2
AcDbScale
  3
ObjectDBX Classes
 90
     1153
280
     0
281
     0
  0
CLASS
  1
TABLESTYLE
  2
AcDbTableStyle
  3
ObjectDBX Classes
 90
     4095
280
     0
281
     0
  0
CLASS
  1
MLEADERSTYLE
  2
AcDbMLeaderStyle
  3
ACDB_MLEADERSTYLE_CLASS
 90
     4095
280
     0
281
     0
  0
CLASS
  1
SUN
  2
AcDbSun
  3
SCENEOE
 90
     1153
280
     0
281
     0
  0
CLASS
  1
ACDBPLACEHOLDER
  2
AcDbPlaceHolder
  3
ObjectDBX Classes
 90
        0
280
     0
281
     0
  0
CLASS
  1
LAYOUT
  2
AcDbLayout
  3
ObjectDBX Classes
 90
        0
280
     0
281
     0
  0
ENDSEC
  0
SECTION
  2
TABLES
  0
TABLE
  2
VPORT
  5
8
330
0
100
AcDbSymbolTable
 70
     1
  0
VPORT
  5
29
330
8
100
AcDbSymbolTableRecord
100
AcDbViewportTableRecord
  2
*Active
 70
     0
 10
0.0
 20
0.0
 11
1.0
 21
1.0
 12
105.0
 22
148.5
 13
0.0
 23
0.0
 14
10.0
 24
10.0
 15
10.0
 25
10.0
 16
0.0
 26
0.0
 36
1.0
 17
0.0
 27
0.0
 37
0.0
 40
297.0
 41
0.7070707071
 42
50.0
 43
0.0
 44
0.0
 50
0.0
 51
0.0
 71
     0
 72
  2000
 73
     1
 74
     3
 75
     0
 76
     0
 77
     0
 78
     0
281
     0
 65
     1
110
0.0
120
0.0
130
0.0
111
1.0
121
0.0
131
0.0
112
0.0
122
1.0
132
0.0
 79
     0
146
0.0
  0
ENDTAB
  0
TABLE
  2
LTYPE
  5
5
330
0
100
AcDbSymbolTable
 70
     6
  0
LTYPE
  5
14
330
5
100
AcDbSymbolTableRecord
100
AcDbLinetypeTableRecord
  2
ByBlock
 70
     0
  3

 72
    65
 73
     0
 40
0.0
  0
LTYPE
  5
15
330
5
100
AcDbSymbolTableRecord
100
AcDbLinetypeTableRecord
  2
ByLayer
 70
     0
  3

 72
    65
 73
     0
 40
0.0
  0
LTYPE
  5
16
330
5
100
AcDbSymbolTableRecord
100
AcDbLinetypeTableRecord
  2
Continuous
 70
     0
  3
Solid line
 72
    65
 73
     0
 40
0.0
  0
LTYPE
  5
6E
330
5
100
AcDbSymbolTableRecord
100
AcDbLinetypeTableRecord
  2
HIDDEN
 70
     0
  3
Hidden __ __ __ __ __ __ __ __ __ __ __ __ __ __
 72
    65
 73
     2
 40
1.905
 49
1.27
 74
     0
 49
-0.635
 74
     0
  0
LTYPE
  5
6F
330
5
100
AcDbSymbolTableRecord
100
AcDbLinetypeTableRecord
  2
PHANTOM
 70
     0
  3
Phantom ______  __  __  ______  __  __  ______
 72
    65
 73
     6
 40
12.7
 49
6.35
 74
     0
 49
-1.27
 74
     0
 49
1.27
 74
     0
 49
-1.27
 74
     0
 49
1.27
 74
     0
 49
-1.27
 74
     0
  0
LTYPE
  5
70
330
5
100
AcDbSymbolTableRecord
100
AcDbLinetypeTableRecord
  2
CENTER
 70
     0
  3
Center ____ _ ____ _ ____ _ ____ _ ____ _ ____
 72
    65
 73
     4
 40
10.16
 49
6.35
 74
     0
 49
-1.27
 74
     0
 49
1.27
 74
     0
 49
-1.27
 74
     0
  0
LTYPE
  5
71
330
5
100
AcDbSymbolTableRecord
100
AcDbLinetypeTableRecord
  2
CENTERX2
 70
     0
  3
Center (2x) ________  __  ________  __  _____
 72
    65
 73
     4
 40
20.32
 49
12.7
 74
     0
 49
-2.54
 74
     0
 49
2.54
 74
     0
 49
-2.54
 74
     0
  0
LTYPE
  5
72
330
5
100
AcDbSymbolTableRecord
100
AcDbLinetypeTableRecord
  2
DOT2
 70
     0
  3
Dot (.5x) ........................................
 72
    65
 73
     2
 40
0.635
 49
0.0
 74
     0
 49
-0.635
 74
     0
  0
ENDTAB
  0
TABLE
  2
LAYER
  5
2
330
0
100
AcDbSymbolTable
 70
    11
  0
LAYER
  5
10
330
2
100
AcDbSymbolTableRecord
100
AcDbLayerTableRecord
  2
0
 70
     0
 62
     7
  6
Continuous
370
    -3
390
F
  0
LAYER
  5
73
330
2
100
AcDbSymbolTableRecord
100
AcDbLayerTableRecord
  2
SLD-0
 70
     0
 62
     7
  6
Continuous
370
    -3
390
F
  0
LAYER
  5
74
330
2
100
AcDbSymbolTableRecord
100
AcDbLayerTableRecord
  2
CONTORNO
 70
     0
 62
     7
  6
Continuous
370
    35
390
F
  0
LAYER
  5
75
330
2
100
AcDbSymbolTableRecord
100
AcDbLayerTableRecord
  2
RIQUADRO
 70
     0
 62
     5
  6
Continuous
370
    -3
390
F
  0
LAYER
  5
76
330
2
100
AcDbSymbolTableRecord
100
AcDbLayerTableRecord
  2
LOGO
 70
     0
 62
   176
  6
Continuous
370
    -3
390
F
  0
LAYER
  5
77
330
2
100
AcDbSymbolTableRecord
100
AcDbLayerTableRecord
  2
PROIEZ
 70
     0
 62
    16
  6
Continuous
370
    25
390
F
  0
LAYER
  5
78
330
2
100
AcDbSymbolTableRecord
100
AcDbLayerTableRecord
  2
CARTIGLIO
 70
     0
 62
     5
  6
Continuous
370
    -3
390
F
  0
LAYER
  5
79
330
2
100
AcDbSymbolTableRecord
100
AcDbLayerTableRecord
  2
TABELLA_REV
 70
     0
 62
   136
  6
Continuous
370
    -3
390
F
  0
LAYER
  5
7A
330
2
100
AcDbSymbolTableRecord
100
AcDbLayerTableRecord
  2
1_HATCH
 70
     0
 62
   179
  6
Continuous
370
    -3
390
F
  0
LAYER
  5
7B
330
2
100
AcDbSymbolTableRecord
100
AcDbLayerTableRecord
  2
2
 70
     0
 62
   179
  6
Continuous
370
    -3
390
F
  0
LAYER
  5
7C
330
2
100
AcDbSymbolTableRecord
100
AcDbLayerTableRecord
  2
3_HATCH_2
 70
     0
 62
     4
  6
Continuous
370
    -3
390
F
  0
ENDTAB
  0
TABLE
  2
STYLE
  5
3
330
0
100
AcDbSymbolTable
 70
     4
  0
STYLE
  5
11
330
3
100
AcDbSymbolTableRecord
100
AcDbTextStyleTableRecord
  2
Standard
 70
     0
 40
0.0
 41
1.0
 50
0.0
 71
     0
 42
3.5
  3
txt
  4

  0
STYLE
  5
EC
330
3
100
AcDbSymbolTableRecord
100
AcDbTextStyleTableRecord
  2
SLDTEXTSTYLE0
 70
     0
 40
0.0
 41
0.6375
 50
0.0
 71
     0
 42
3.5
  3
TXT
  4

  0
STYLE
  5
F1
330
3
100
AcDbSymbolTableRecord
100
AcDbTextStyleTableRecord
  2
SLDTEXTSTYLE1
 70
     0
 40
0.0
 41
0.75
 50
0.0
 71
     0
 42
3.5
  3
TXT
  4

  0
STYLE
  5
103
330
3
100
AcDbSymbolTableRecord
100
AcDbTextStyleTableRecord
  2
SLDTEXTSTYLE2
 70
     0
 40
0.0
 41
0.7
 50
0.0
 71
     0
 42
3.5
  3
TXT
  4

  0
ENDTAB
  0
TABLE
  2
VIEW
  5
6
330
0
100
AcDbSymbolTable
 70
     0
  0
ENDTAB
  0
TABLE
  2
UCS
  5
7
330
0
100
AcDbSymbolTable
 70
     0
  0
ENDTAB
  0
TABLE
  2
APPID
  5
9
330
0
100
AcDbSymbolTable
 70
     1
  0
APPID
  5
12
330
9
100
AcDbSymbolTableRecord
100
AcDbRegAppTableRecord
  2
ACAD
 70
     0
  0
ENDTAB
  0
TABLE
  2
DIMSTYLE
  5
A
330
0
100
AcDbSymbolTable
 70
     8
100
AcDbDimStyleTable
  0
DIMSTYLE
105
27
330
A
100
AcDbSymbolTableRecord
100
AcDbDimStyleTableRecord
  2
ISO-25
 70
     0
 41
2.5
 42
0.625
 43
3.75
 44
1.25
 73
     0
 74
     0
 77
     1
 78
     8
140
2.5
141
2.5
143
0.0393700787
147
0.625
171
     3
172
     1
178
     0
271
     2
272
     2
274
     3
278
    44
283
     0
284
     8
340
11
  0
DIMSTYLE
105
197
102
{ACAD_REACTORS
330
196
330
1A1
330
1AB
330
1B5
330
1CC
330
292
330
29C
330
2A6
330
2BF
330
2C9
102
}
330
A
100
AcDbSymbolTableRecord
100
AcDbDimStyleTableRecord
  2
SLDDIMSTYLE0
 70
     0
 41
3.302
 44
0.0
 45
0.000000001
 73
     0
 74
     0
 77
     1
 78
    12
 79
     3
140
3.5
147
0.875
173
     1
178
     0
271
     2
272
     2
276
     2
284
    12
340
F1
  0
DIMSTYLE
105
1C0
102
{ACAD_REACTORS
330
1BF
330
1D7
330
1E3
330
316
102
}
330
A
100
AcDbSymbolTableRecord
100
AcDbDimStyleTableRecord
  2
SLDDIMSTYLE1
 70
     0
 41
3.302
 44
0.0
 45
0.000000001
 73
     0
 74
     0
 77
     1
 78
    12
 79
     3
140
3.5
147
0.875
172
     1
173
     1
178
     0
271
     2
272
     2
276
     2
284
    12
289
     0
340
F1
  0
DIMSTYLE
105
1F0
102
{ACAD_REACTORS
330
1EF
330
1FC
102
}
330
A
100
AcDbSymbolTableRecord
100
AcDbDimStyleTableRecord
  2
SLDDIMSTYLE2
 70
     0
  3
<>
 41
3.302
 44
0.0
 45
0.000000001
 78
    12
 79
     3
140
3.5
141
0.0
147
0.875
172
     1
173
     1
178
     0
271
     2
272
     2
276
     2
284
    12
340
F1
  0
DIMSTYLE
105
273
102
{ACAD_REACTORS
330
272
330
28B
102
}
330
A
100
AcDbSymbolTableRecord
100
AcDbDimStyleTableRecord
  2
SLDDIMSTYLE3
 70
     0
 41
3.302
 44
0.0
 45
0.000000001
 73
     0
 74
     0
 77
     1
 78
    12
 79
     3
140
3.5
141
0.0
147
0.875
173
     1
178
     0
271
     2
272
     2
276
     2
284
    12
340
F1
  0
DIMSTYLE
105
27B
102
{ACAD_REACTORS
330
27A
330
283
102
}
330
A
100
AcDbSymbolTableRecord
100
AcDbDimStyleTableRecord
  2
SLDDIMSTYLE4
 70
     0
 41
3.302
 44
0.0
 73
     0
 74
     0
 77
     1
 78
    12
 79
     3
140
3.5
147
0.875
173
     1
178
     0
179
     2
272
     2
276
     2
284
    12
340
F1
  0
DIMSTYLE
105
2B1
102
{ACAD_REACTORS
330
2B0
330
2B8
102
}
330
A
100
AcDbSymbolTableRecord
100
AcDbDimStyleTableRecord
  2
SLDDIMSTYLE5
 70
     0
 41
3.302
 44
0.0
 45
0.000000001
 73
     0
 74
     0
 77
     1
 78
    12
 79
     3
140
3.5
141
0.0
147
0.875
173
     1
178
     0
271
     2
272
     2
276
     2
284
    12
340
F1
  0
DIMSTYLE
105
323
102
{ACAD_REACTORS
330
322
330
331
102
}
330
A
100
AcDbSymbolTableRecord
100
AcDbDimStyleTableRecord
  2
SLDDIMSTYLE6
 70
     0
 41
3.302
 44
0.0
 45
0.000000001
 73
     0
 74
     0
 77
     1
 78
     4
 79
     1
140
3.5
147
0.875
172
     1
173
     1
178
     0
271
     2
272
     2
276
     2
284
    12
289
     0
340
F1
  0
ENDTAB
  0
TABLE
  2
BLOCK_RECORD
  5
1
330
0
100
AcDbSymbolTable
 70
    46
  0
BLOCK_RECORD
  5
1F
330
1
100
AcDbSymbolTableRecord
100
AcDbBlockTableRecord
  2
*Model_Space
340
22
  0
BLOCK_RECORD
  5
1B
330
1
100
AcDbSymbolTableRecord
100
AcDbBlockTableRecord
  2
*Paper_Space
340
1E
  0
BLOCK_RECORD
  5
23
330
1
100
AcDbSymbolTableRecord
100
AcDbBlockTableRecord
  2
*Paper_Space0
340
26
  0
BLOCK_RECORD
  5
F7
330
1
100
AcDbSymbolTableRecord
100
AcDbBlockTableRecord
  2
SW_NOTE_0
340
0
102
{BLKREFS
331
FC
102
}
  0
BLOCK_RECORD
  5
FD
330
1
100
AcDbSymbolTableRecord
100
AcDbBlockTableRecord
  2
SW_NOTE_0_1
340
0
102
{BLKREFS
331
102
102
}
  0
BLOCK_RECORD
  5
108
330
1
100
AcDbSymbolTableRecord
100
AcDbBlockTableRecord
  2
SW_NOTE_0_2
340
0
102
{BLKREFS
331
10D
102
}
  0
BLOCK_RECORD
  5
10E
330
1
100
AcDbSymbolTableRecord
100
AcDbBlockTableRecord
  2
SW_NOTE_0_3
340
0
102
{BLKREFS
331
113
102
}
  0
BLOCK_RECORD
  5
114
330
1
100
AcDbSymbolTableRecord
100
AcDbBlockTableRecord
  2
SW_NOTE_0_4
340
0
102
{BLKREFS
331
119
102
}
  0
BLOCK_RECORD
  5
11A
330
1
100
AcDbSymbolTableRecord
100
AcDbBlockTableRecord
  2
SW_NOTE_0_5
340
0
102
{BLKREFS
331
11F
102
}
  0
BLOCK_RECORD
  5
120
330
1
100
AcDbSymbolTableRecord
100
AcDbBlockTableRecord
  2
SW_NOTE_0_6
340
0
102
{BLKREFS
331
125
102
}
  0
BLOCK_RECORD
  5
126
330
1
100
AcDbSymbolTableRecord
100
AcDbBlockTableRecord
  2
SW_NOTE_0_7
340
0
102
{BLKREFS
331
12B
102
}
  0
BLOCK_RECORD
  5
12C
330
1
100
AcDbSymbolTableRecord
100
AcDbBlockTableRecord
  2
SW_NOTE_0_8
340
0
102
{BLKREFS
331
131
102
}
  0
BLOCK_RECORD
  5
132
330
1
100
AcDbSymbolTableRecord
100
AcDbBlockTableRecord
  2
SW_NOTE_0_9
340
0
102
{BLKREFS
331
137
102
}
  0
BLOCK_RECORD
  5
167
330
1
100
AcDbSymbolTableRecord
100
AcDbBlockTableRecord
  2
SW_NOTE_0_10
340
0
102
{BLKREFS
331
16E
102
}
  0
BLOCK_RECORD
  5
198
330
1
100
AcDbSymbolTableRecord
100
AcDbBlockTableRecord
  2
_D
340
0
  0
BLOCK_RECORD
  5
1A2
330
1
100
AcDbSymbolTableRecord
100
AcDbBlockTableRecord
  2
_D_1
340
0
  0
BLOCK_RECORD
  5
1AC
330
1
100
AcDbSymbolTableRecord
100
AcDbBlockTableRecord
  2
_D_2
340
0
  0
BLOCK_RECORD
  5
1B6
330
1
100
AcDbSymbolTableRecord
100
AcDbBlockTableRecord
  2
_D_3
340
0
  0
BLOCK_RECORD
  5
1C1
330
1
100
AcDbSymbolTableRecord
100
AcDbBlockTableRecord
  2
_D_4
340
0
  0
BLOCK_RECORD
  5
1CD
330
1
100
AcDbSymbolTableRecord
100
AcDbBlockTableRecord
  2
_D_5
340
0
  0
BLOCK_RECORD
  5
1D8
330
1
100
AcDbSymbolTableRecord
100
AcDbBlockTableRecord
  2
_D_6
340
0
  0
BLOCK_RECORD
  5
1E4
330
1
100
AcDbSymbolTableRecord
100
AcDbBlockTableRecord
  2
_D_7
340
0
  0
BLOCK_RECORD
  5
1F1
330
1
100
AcDbSymbolTableRecord
100
AcDbBlockTableRecord
  2
_D_8
340
0
  0
BLOCK_RECORD
  5
1FD
330
1
100
AcDbSymbolTableRecord
100
AcDbBlockTableRecord
  2
_D_9
340
0
  0
BLOCK_RECORD
  5
208
330
1
100
AcDbSymbolTableRecord
100
AcDbBlockTableRecord
  2
SW_CENTERMARKSYMBOL_0
340
0
102
{BLKREFS
331
213
102
}
  0
BLOCK_RECORD
  5
214
330
1
100
AcDbSymbolTableRecord
100
AcDbBlockTableRecord
  2
SW_CENTERMARKSYMBOL_1
340
0
102
{BLKREFS
331
21F
102
}
  0
BLOCK_RECORD
  5
220
330
1
100
AcDbSymbolTableRecord
100
AcDbBlockTableRecord
  2
SW_CENTERMARKSYMBOL_2
340
0
102
{BLKREFS
331
22B
102
}
  0
BLOCK_RECORD
  5
22C
330
1
100
AcDbSymbolTableRecord
100
AcDbBlockTableRecord
  2
SW_CENTERMARKSYMBOL_3
340
0
102
{BLKREFS
331
237
102
}
  0
BLOCK_RECORD
  5
238
330
1
100
AcDbSymbolTableRecord
100
AcDbBlockTableRecord
  2
SW_CENTERMARKSYMBOL_4
340
0
102
{BLKREFS
331
243
102
}
  0
BLOCK_RECORD
  5
244
330
1
100
AcDbSymbolTableRecord
100
AcDbBlockTableRecord
  2
SW_CENTERMARKSYMBOL_5
340
0
102
{BLKREFS
331
24F
102
}
  0
BLOCK_RECORD
  5
274
330
1
100
AcDbSymbolTableRecord
100
AcDbBlockTableRecord
  2
_D_10
340
0
  0
BLOCK_RECORD
  5
27C
330
1
100
AcDbSymbolTableRecord
100
AcDbBlockTableRecord
  2
_D_11
340
0
  0
BLOCK_RECORD
  5
284
330
1
100
AcDbSymbolTableRecord
100
AcDbBlockTableRecord
  2
_D_12
340
0
  0
BLOCK_RECORD
  5
28C
330
1
100
AcDbSymbolTableRecord
100
AcDbBlockTableRecord
  2
_D_13
340
0
  0
BLOCK_RECORD
  5
293
330
1
100
AcDbSymbolTableRecord
100
AcDbBlockTableRecord
  2
_D_14
340
0
  0
BLOCK_RECORD
  5
29D
330
1
100
AcDbSymbolTableRecord
100
AcDbBlockTableRecord
  2
_D_15
340
0
  0
BLOCK_RECORD
  5
2A7
330
1
100
AcDbSymbolTableRecord
100
AcDbBlockTableRecord
  2
_D_16
340
0
  0
BLOCK_RECORD
  5
2B2
330
1
100
AcDbSymbolTableRecord
100
AcDbBlockTableRecord
  2
_D_17
340
0
  0
BLOCK_RECORD
  5
2B9
330
1
100
AcDbSymbolTableRecord
100
AcDbBlockTableRecord
  2
_D_18
340
0
  0
BLOCK_RECORD
  5
2C0
330
1
100
AcDbSymbolTableRecord
100
AcDbBlockTableRecord
  2
_D_19
340
0
  0
BLOCK_RECORD
  5
2CA
330
1
100
AcDbSymbolTableRecord
100
AcDbBlockTableRecord
  2
_D_20
340
0
  0
BLOCK_RECORD
  5
2D2
330
1
100
AcDbSymbolTableRecord
100
AcDbBlockTableRecord
  2
SW_CENTERMARKSYMBOL_6
340
0
102
{BLKREFS
331
2DD
102
}
  0
BLOCK_RECORD
  5
2DE
330
1
100
AcDbSymbolTableRecord
100
AcDbBlockTableRecord
  2
SW_CENTERMARKSYMBOL_7
340
0
102
{BLKREFS
331
2E9
102
}
  0
BLOCK_RECORD
  5
2EA
330
1
100
AcDbSymbolTableRecord
100
AcDbBlockTableRecord
  2
SW_CENTERMARKSYMBOL_8
340
0
102
{BLKREFS
331
2F5
102
}
  0
BLOCK_RECORD
  5
2F6
330
1
100
AcDbSymbolTableRecord
100
AcDbBlockTableRecord
  2
SW_CENTERMARKSYMBOL_9
340
0
102
{BLKREFS
331
2FD
102
}
  0
BLOCK_RECORD
  5
317
330
1
100
AcDbSymbolTableRecord
100
AcDbBlockTableRecord
  2
_D_21
340
0
  0
BLOCK_RECORD
  5
324
330
1
100
AcDbSymbolTableRecord
100
AcDbBlockTableRecord
  2
_D_22
340
0
  0
BLOCK_RECORD
  5
332
330
1
100
AcDbSymbolTableRecord
100
AcDbBlockTableRecord
  2
_D_23
340
0
  0
ENDTAB
  0
ENDSEC
  0
SECTION
  2
BLOCKS
  0
BLOCK
  5
20
330
1F
100
AcDbEntity
  8
0
100
AcDbBlockBegin
  2
*Model_Space
 70
     0
 10
0.0
 20
0.0
 30
0.0
  3
*Model_Space
  1

  0
ENDBLK
  5
21
330
1F
100
AcDbEntity
  8
0
100
AcDbBlockEnd
  0
BLOCK
  5
1C
330
1B
100
AcDbEntity
 67
     1
  8
0
100
AcDbBlockBegin
  2
*Paper_Space
 70
     0
 10
0.0
 20
0.0
 30
0.0
  3
*Paper_Space
  1

  0
ENDBLK
  5
1D
330
1B
100
AcDbEntity
 67
     1
  8
0
100
AcDbBlockEnd
  0
BLOCK
  5
24
330
23
100
AcDbEntity
  8
0
100
AcDbBlockBegin
  2
*Paper_Space0
 70
     0
 10
0.0
 20
0.0
 30
0.0
  3
*Paper_Space0
  1

  0
ENDBLK
  5
25
330
23
100
AcDbEntity
  8
0
100
AcDbBlockEnd
  0
BLOCK
  5
F8
330
F7
100
AcDbEntity
  8
0
100
AcDbBlockBegin
  2
SW_NOTE_0
 70
     0
 10
0.0
 20
0.0
 30
0.0
  3
SW_NOTE_0
  1

  0
MTEXT
  5
FA
330
F7
100
AcDbEntity
  8
CARTIGLIO
 62
     0
100
AcDbMText
 10
0.0
 20
2.5781354795
 30
0.0
 40
2.0
 41
0.0
 71
     1
 72
     1
  1
Undimensioned
  7
SLDTEXTSTYLE1
 73
     1
 44
1.0
  0
MTEXT
  5
FB
330
F7
100
AcDbEntity
  8
CARTIGLIO
 62
     0
100
AcDbMText
 10
0.0
 20
-0.4218645465
 30
0.0
 40
2.0
 41
0.0
 71
     1
 72
     1
  1
radii
  7
SLDTEXTSTYLE1
 73
     1
 44
1.0
  0
ENDBLK
  5
F9
330
F7
100
AcDbEntity
  8
0
100
AcDbBlockEnd
  0
BLOCK
  5
FE
330
FD
100
AcDbEntity
  8
0
100
AcDbBlockBegin
  2
SW_NOTE_0_1
 70
     0
 10
0.0
 20
0.0
 30
0.0
  3
SW_NOTE_0_1
  1

  0
MTEXT
  5
100
330
FD
100
AcDbEntity
  8
CARTIGLIO
 62
     0
100
AcDbMText
 10
0.0
 20
2.5781354795
 30
0.0
 40
2.0
 41
0.0
 71
     1
 72
     1
  1
Undimensioned
  7
SLDTEXTSTYLE1
 73
     1
 44
1.0
  0
MTEXT
  5
101
330
FD
100
AcDbEntity
  8
CARTIGLIO
 62
     0
100
AcDbMText
 10
0.0
 20
-0.4218645465
 30
0.0
 40
2.0
 41
0.0
 71
     1
 72
     1
  1
bevels
  7
SLDTEXTSTYLE1
 73
     1
 44
1.0
  0
ENDBLK
  5
FF
330
FD
100
AcDbEntity
  8
0
100
AcDbBlockEnd
  0
BLOCK
  5
109
330
108
100
AcDbEntity
  8
0
100
AcDbBlockBegin
  2
SW_NOTE_0_2
 70
     0
 10
0.0
 20
0.0
 30
0.0
  3
SW_NOTE_0_2
  1

  0
MTEXT
  5
10B
330
108
100
AcDbEntity
  8
CARTIGLIO
 62
     0
100
AcDbMText
 10
3.5625
 20
2.5781354795
 30
0.0
 40
2.0
 41
0.0
 71
     3
 72
     1
  1
0.5
  7
SLDTEXTSTYLE1
 73
     1
 44
1.0
  0
MTEXT
  5
10C
330
108
100
AcDbEntity
  8
CARTIGLIO
 62
     0
100
AcDbMText
 10
3.5065974854
 20
-0.4218645465
 30
0.0
 40
2.0
 41
0.0
 71
     3
 72
     1
  1
÷3
  7
SLDTEXTSTYLE1
 73
     1
 44
1.0
  0
ENDBLK
  5
10A
330
108
100
AcDbEntity
  8
0
100
AcDbBlockEnd
  0
BLOCK
  5
10F
330
10E
100
AcDbEntity
  8
0
100
AcDbBlockBegin
  2
SW_NOTE_0_3
 70
     0
 10
0.0
 20
0.0
 30
0.0
  3
SW_NOTE_0_3
  1

  0
MTEXT
  5
111
330
10E
100
AcDbEntity
  8
CARTIGLIO
 62
     0
100
AcDbMText
 10
4.375
 20
2.5781354795
 30
0.0
 40
2.0
 41
0.0
 71
     3
 72
     1
  1
>3÷
  7
SLDTEXTSTYLE1
 73
     1
 44
1.0
  0
MTEXT
  5
112
330
10E
100
AcDbEntity
  8
CARTIGLIO
 62
     0
100
AcDbMText
 10
4.4781248989
 20
-0.4218645465
 30
0.0
 40
2.0
 41
0.0
 71
     3
 72
     1
  1
6
  7
SLDTEXTSTYLE1
 73
     1
 44
1.0
  0
ENDBLK
  5
110
330
10E
100
AcDbEntity
  8
0
100
AcDbBlockEnd
  0
BLOCK
  5
115
330
114
100
AcDbEntity
  8
0
100
AcDbBlockBegin
  2
SW_NOTE_0_4
 70
     0
 10
0.0
 20
0.0
 30
0.0
  3
SW_NOTE_0_4
  1

  0
MTEXT
  5
117
330
114
100
AcDbEntity
  8
CARTIGLIO
 62
     0
100
AcDbMText
 10
4.375
 20
2.5781354795
 30
0.0
 40
2.0
 41
0.0
 71
     3
 72
     1
  1
>6÷
  7
SLDTEXTSTYLE1
 73
     1
 44
1.0
  0
MTEXT
  5
118
330
114
100
AcDbEntity
  8
CARTIGLIO
 62
     0
100
AcDbMText
 10
4.4340279363
 20
-0.4218645465
 30
0.0
 40
2.0
 41
0.0
 71
     3
 72
     1
  1
30
  7
SLDTEXTSTYLE1
 73
     1
 44
1.0
  0
ENDBLK
  5
116
330
114
100
AcDbEntity
  8
0
100
AcDbBlockEnd
  0
BLOCK
  5
11B
330
11A
100
AcDbEntity
  8
0
100
AcDbBlockBegin
  2
SW_NOTE_0_5
 70
     0
 10
0.0
 20
0.0
 30
0.0
  3
SW_NOTE_0_5
  1

  0
MTEXT
  5
11D
330
11A
100
AcDbEntity
  8
CARTIGLIO
 62
     0
100
AcDbMText
 10
5.8125
 20
2.5781354795
 30
0.0
 40
2.0
 41
0.0
 71
     3
 72
     1
  1
>30÷
  7
SLDTEXTSTYLE1
 73
     1
 44
1.0
  0
MTEXT
  5
11E
330
11A
100
AcDbEntity
  8
CARTIGLIO
 62
     0
100
AcDbMText
 10
5.9836805947
 20
-0.4218645465
 30
0.0
 40
2.0
 41
0.0
 71
     3
 72
     1
  1
120
  7
SLDTEXTSTYLE1
 73
     1
 44
1.0
  0
ENDBLK
  5
11C
330
11A
100
AcDbEntity
  8
0
100
AcDbBlockEnd
  0
BLOCK
  5
121
330
120
100
AcDbEntity
  8
0
100
AcDbBlockBegin
  2
SW_NOTE_0_6
 70
     0
 10
0.0
 20
0.0
 30
0.0
  3
SW_NOTE_0_6
  1

  0
MTEXT
  5
123
330
120
100
AcDbEntity
  8
CARTIGLIO
 62
     0
100
AcDbMText
 10
5.875
 20
2.5781354795
 30
0.0
 40
2.0
 41
0.0
 71
     3
 72
     1
  1
>120
  7
SLDTEXTSTYLE1
 73
     1
 44
1.0
  0
MTEXT
  5
124
330
120
100
AcDbEntity
  8
CARTIGLIO
 62
     0
100
AcDbMText
 10
5.717708379
 20
-0.4218645465
 30
0.0
 40
2.0
 41
0.0
 71
     3
 72
     1
  1
÷400
  7
SLDTEXTSTYLE1
 73
     1
 44
1.0
  0
ENDBLK
  5
122
330
120
100
AcDbEntity
  8
0
100
AcDbBlockEnd
  0
BLOCK
  5
127
330
126
100
AcDbEntity
  8
0
100
AcDbBlockBegin
  2
SW_NOTE_0_7
 70
     0
 10
0.0
 20
0.0
 30
0.0
  3
SW_NOTE_0_7
  1

  0
MTEXT
  5
129
330
126
100
AcDbEntity
  8
CARTIGLIO
 62
     0
100
AcDbMText
 10
7.25
 20
2.5781354795
 30
0.0
 40
2.0
 41
0.0
 71
     3
 72
     1
  1
>400÷
  7
SLDTEXTSTYLE1
 73
     1
 44
1.0
  0
MTEXT
  5
12A
330
126
100
AcDbEntity
  8
CARTIGLIO
 62
     0
100
AcDbMText
 10
7.4274307005
 20
-0.4218645465
 30
0.0
 40
2.0
 41
0.0
 71
     3
 72
     1
  1
1000
  7
SLDTEXTSTYLE1
 73
     1
 44
1.0
  0
ENDBLK
  5
128
330
126
100
AcDbEntity
  8
0
100
AcDbBlockEnd
  0
BLOCK
  5
12D
330
12C
100
AcDbEntity
  8
0
100
AcDbBlockBegin
  2
SW_NOTE_0_8
 70
     0
 10
0.0
 20
0.0
 30
0.0
  3
SW_NOTE_0_8
  1

  0
MTEXT
  5
12F
330
12C
100
AcDbEntity
  8
CARTIGLIO
 62
     0
100
AcDbMText
 10
7.3125
 20
2.5781354795
 30
0.0
 40
2.0
 41
0.0
 71
     3
 72
     1
  1
>1000
  7
SLDTEXTSTYLE1
 73
     1
 44
1.0
  0
MTEXT
  5
130
330
12C
100
AcDbEntity
  8
CARTIGLIO
 62
     0
100
AcDbMText
 10
7.1611115672
 20
-0.4218645465
 30
0.0
 40
2.0
 41
0.0
 71
     3
 72
     1
  1
÷2000
  7
SLDTEXTSTYLE1
 73
     1
 44
1.0
  0
ENDBLK
  5
12E
330
12C
100
AcDbEntity
  8
0
100
AcDbBlockEnd
  0
BLOCK
  5
133
330
132
100
AcDbEntity
  8
0
100
AcDbBlockBegin
  2
SW_NOTE_0_9
 70
     0
 10
0.0
 20
0.0
 30
0.0
  3
SW_NOTE_0_9
  1

  0
MTEXT
  5
135
330
132
100
AcDbEntity
  8
CARTIGLIO
 62
     0
100
AcDbMText
 10
7.3125
 20
2.5781354795
 30
0.0
 40
2.0
 41
0.0
 71
     3
 72
     1
  1
>2000
  7
SLDTEXTSTYLE1
 73
     1
 44
1.0
  0
MTEXT
  5
136
330
132
100
AcDbEntity
  8
CARTIGLIO
 62
     0
100
AcDbMText
 10
7.2572915778
 20
-0.4218645465
 30
0.0
 40
2.0
 41
0.0
 71
     3
 72
     1
  1
÷4000
  7
SLDTEXTSTYLE1
 73
     1
 44
1.0
  0
ENDBLK
  5
134
330
132
100
AcDbEntity
  8
0
100
AcDbBlockEnd
  0
BLOCK
  5
168
330
167
100
AcDbEntity
  8
0
100
AcDbBlockBegin
  2
SW_NOTE_0_10
 70
     0
 10
0.0
 20
0.0
 30
0.0
  3
SW_NOTE_0_10
  1

  0
MTEXT
  5
16A
330
167
100
AcDbEntity
  8
RIQUADRO
 62
     0
100
AcDbMText
 10
26.1896158854
 20
2.3800078247
 30
0.0
 40
1.8520833333
 41
0.0
 71
     2
 72
     1
  1
Secret and confidential - All rights reserved -
  7
SLDTEXTSTYLE1
 73
     1
 44
1.0
  0
MTEXT
  5
16B
330
167
100
AcDbEntity
  8
RIQUADRO
 62
     0
100
AcDbMText
 10
26.326813525
 20
-0.0894365899
 30
0.0
 40
1.8520833333
 41
0.0
 71
     2
 72
     1
  1
No copy, dissemination or circulation is allowed unless
  7
SLDTEXTSTYLE1
 73
     1
 44
1.0
  0
MTEXT
  5
16C
330
167
100
AcDbEntity
  8
RIQUADRO
 62
     0
100
AcDbMText
 10
26.2916565259
 20
-2.5588810045
 30
0.0
 40
1.8520833333
 41
0.0
 71
     2
 72
     1
  1
specifically authorized in writing by OPTO ENGINEERING
  7
SLDTEXTSTYLE1
 73
     1
 44
1.0
  0
MTEXT
  5
16D
330
167
100
AcDbEntity
  8
RIQUADRO
 62
     0
100
AcDbMText
 10
26.2363508771
 20
-5.0283254191
 30
0.0
 40
1.8520833333
 41
0.0
 71
     2
 72
     1
  1
S.r.l. - Any violation shall be legally prosecuted.
  7
SLDTEXTSTYLE1
 73
     1
 44
1.0
  0
ENDBLK
  5
169
330
167
100
AcDbEntity
  8
0
100
AcDbBlockEnd
  0
BLOCK
  5
199
330
198
100
AcDbEntity
  8
0
100
AcDbBlockBegin
  2
_D
 70
     0
 10
0.0
 20
0.0
 30
0.0
  3
_D
  1

  0
SOLID
  5
19B
330
198
100
AcDbEntity
  8
RIQUADRO
100
AcDbTrace
 10
24.9819107504
 20
263.1760381088
 30
0.0
 11
24.4739107504
 21
259.8740381088
 31
0.0
 12
25.4899107504
 22
259.8740381088
 32
0.0
 13
25.4899107504
 23
259.8740381088
 33
0.0
  0
SOLID
  5
19C
330
198
100
AcDbEntity
  8
RIQUADRO
100
AcDbTrace
 10
24.9819107504
 20
243.1760381088
 30
0.0
 11
25.4899107504
 21
246.4780381088
 31
0.0
 12
24.4739107504
 22
246.4780381088
 32
0.0
 13
24.4739107504
 23
246.4780381088
 33
0.0
  0
LINE
  5
19D
330
198
100
AcDbEntity
  8
RIQUADRO
100
AcDbLine
 10
89.2942235444
 20
263.1760381088
 30
0.0
 11
23.9819107504
 21
263.1760381088
 31
0.0
  0
LINE
  5
19E
330
198
100
AcDbEntity
  8
RIQUADRO
100
AcDbLine
 10
44.8578310768
 20
243.1760381088
 30
0.0
 11
23.9819107504
 21
243.1760381088
 31
0.0
  0
LINE
  5
19F
330
198
100
AcDbEntity
  8
RIQUADRO
100
AcDbLine
 10
24.9819107504
 20
263.1760381088
 30
0.0
 11
24.9819107504
 21
243.1760381088
 31
0.0
  0
MTEXT
  5
1A0
330
198
100
AcDbEntity
  8
RIQUADRO
100
AcDbMText
 10
20.4701738358
 20
250.6652188554
 30
0.0
 40
3.5
 41
0.0
 71
     1
 72
     1
  1
20
  7
SLDTEXTSTYLE1
 11
-7.044195017643634E-15
 21
1.0
 31
0.0
 73
     1
 44
1.0
  0
ENDBLK
  5
19A
330
198
100
AcDbEntity
  8
0
100
AcDbBlockEnd
  0
BLOCK
  5
1A3
330
1A2
100
AcDbEntity
  8
0
100
AcDbBlockBegin
  2
_D_1
 70
     0
 10
0.0
 20
0.0
 30
0.0
  3
_D_1
  1

  0
SOLID
  5
1A5
330
1A2
100
AcDbEntity
  8
RIQUADRO
100
AcDbTrace
 10
37.9215294493
 20
258.1760381088
 30
0.0
 11
37.4135294493
 21
254.8740381088
 31
0.0
 12
38.4295294493
 22
254.8740381088
 32
0.0
 13
38.4295294493
 23
254.8740381088
 33
0.0
  0
SOLID
  5
1A6
330
1A2
100
AcDbEntity
  8
RIQUADRO
100
AcDbTrace
 10
37.9215294493
 20
243.1760381088
 30
0.0
 11
38.4295294493
 21
246.4780381088
 31
0.0
 12
37.4135294493
 22
246.4780381088
 32
0.0
 13
37.4135294493
 23
246.4780381088
 33
0.0
  0
LINE
  5
1A7
330
1A2
100
AcDbEntity
  8
RIQUADRO
100
AcDbLine
 10
44.8578310768
 20
258.1760381088
 30
0.0
 11
36.9215294493
 21
258.1760381088
 31
0.0
  0
LINE
  5
1A8
330
1A2
100
AcDbEntity
  8
RIQUADRO
100
AcDbLine
 10
44.8578310768
 20
243.1760381088
 30
0.0
 11
36.9215294493
 21
243.1760381088
 31
0.0
  0
LINE
  5
1A9
330
1A2
100
AcDbEntity
  8
RIQUADRO
100
AcDbLine
 10
37.9215294493
 20
258.1760381088
 30
0.0
 11
37.9215294493
 21
243.1760381088
 31
0.0
  0
MTEXT
  5
1AA
330
1A2
100
AcDbEntity
  8
RIQUADRO
100
AcDbMText
 10
33.4097925347
 20
247.7185730131
 30
0.0
 40
3.5
 41
0.0
 71
     1
 72
     1
  1
15
  7
SLDTEXTSTYLE1
 11
-7.044195017643634E-15
 21
1.0
 31
0.0
 73
     1
 44
1.0
  0
ENDBLK
  5
1A4
330
1A2
100
AcDbEntity
  8
0
100
AcDbBlockEnd
  0
BLOCK
  5
1AD
330
1AC
100
AcDbEntity
  8
0
100
AcDbBlockBegin
  2
_D_2
 70
     0
 10
0.0
 20
0.0
 30
0.0
  3
_D_2
  1

  0
SOLID
  5
1AF
330
1AC
100
AcDbEntity
  8
RIQUADRO
100
AcDbTrace
 10
98.2849567664
 20
224.6816768821
 30
0.0
 11
101.5869567664
 21
224.1736768821
 31
0.0
 12
101.5869567664
 22
225.1896768821
 32
0.0
 13
101.5869567664
 23
225.1896768821
 33
0.0
  0
SOLID
  5
1B0
330
1AC
100
AcDbEntity
  8
RIQUADRO
100
AcDbTrace
 10
132.2849567664
 20
224.6816768821
 30
0.0
 11
128.9829567664
 21
225.1896768821
 31
0.0
 12
128.9829567664
 22
224.1736768821
 32
0.0
 13
128.9829567664
 23
224.1736768821
 33
0.0
  0
LINE
  5
1B1
330
1AC
100
AcDbEntity
  8
RIQUADRO
100
AcDbLine
 10
98.2849567664
 20
242.1760381088
 30
0.0
 11
98.2849567664
 21
223.6816768821
 31
0.0
  0
LINE
  5
1B2
330
1AC
100
AcDbEntity
  8
RIQUADRO
100
AcDbLine
 10
132.2849567664
 20
242.1760381088
 30
0.0
 11
132.2849567664
 21
223.6816768821
 31
0.0
  0
LINE
  5
1B3
330
1AC
100
AcDbEntity
  8
RIQUADRO
100
AcDbLine
 10
98.2849567664
 20
224.6816768821
 30
0.0
 11
132.2849567664
 21
224.6816768821
 31
0.0
  0
MTEXT
  5
1B4
330
1AC
100
AcDbEntity
  8
RIQUADRO
100
AcDbMText
 10
112.2044402294
 20
229.1934137967
 30
0.0
 40
3.5
 41
0.0
 71
     1
 72
     1
  1
34
  7
SLDTEXTSTYLE1
 73
     1
 44
1.0
  0
ENDBLK
  5
1AE
330
1AC
100
AcDbEntity
  8
0
100
AcDbBlockEnd
  0
BLOCK
  5
1B7
330
1B6
100
AcDbEntity
  8
0
100
AcDbBlockBegin
  2
_D_3
 70
     0
 10
0.0
 20
0.0
 30
0.0
  3
_D_3
  1

  0
SOLID
  5
1B9
330
1B6
100
AcDbEntity
  8
RIQUADRO
100
AcDbTrace
 10
102.2849567664
 20
232.8066147445
 30
0.0
 11
105.5869567664
 21
232.2986147445
 31
0.0
 12
105.5869567664
 22
233.3146147445
 32
0.0
 13
105.5869567664
 23
233.3146147445
 33
0.0
  0
SOLID
  5
1BA
330
1B6
100
AcDbEntity
  8
RIQUADRO
100
AcDbTrace
 10
128.2849567664
 20
232.8066147445
 30
0.0
 11
124.9829567664
 21
233.3146147445
 31
0.0
 12
124.9829567664
 22
232.2986147445
 32
0.0
 13
124.9829567664
 23
232.2986147445
 33
0.0
  0
LINE
  5
1BB
330
1B6
100
AcDbEntity
  8
RIQUADRO
100
AcDbLine
 10
102.2849567664
 20
246.1760381088
 30
0.0
 11
102.2849567664
 21
231.8066147445
 31
0.0
  0
LINE
  5
1BC
330
1B6
100
AcDbEntity
  8
RIQUADRO
100
AcDbLine
 10
128.2849567664
 20
246.1760381088
 30
0.0
 11
128.2849567664
 21
231.8066147445
 31
0.0
  0
LINE
  5
1BD
330
1B6
100
AcDbEntity
  8
RIQUADRO
100
AcDbLine
 10
102.2849567664
 20
232.8066147445
 30
0.0
 11
128.2849567664
 21
232.8066147445
 31
0.0
  0
MTEXT
  5
1BE
330
1B6
100
AcDbEntity
  8
RIQUADRO
100
AcDbMText
 10
112.2044402294
 20
237.318351659
 30
0.0
 40
3.5
 41
0.0
 71
     1
 72
     1
  1
26
  7
SLDTEXTSTYLE1
 73
     1
 44
1.0
  0
ENDBLK
  5
1B8
330
1B6
100
AcDbEntity
  8
0
100
AcDbBlockEnd
  0
BLOCK
  5
1C2
330
1C1
100
AcDbEntity
  8
0
100
AcDbBlockBegin
  2
_D_4
 70
     0
 10
0.0
 20
0.0
 30
0.0
  3
_D_4
  1

  0
SOLID
  5
1C4
330
1C1
100
AcDbEntity
  8
RIQUADRO
100
AcDbTrace
 10
98.2849567664
 20
232.8066147445
 30
0.0
 11
94.9829567664
 21
233.3146147445
 31
0.0
 12
94.9829567664
 22
232.2986147445
 32
0.0
 13
94.9829567664
 23
232.2986147445
 33
0.0
  0
SOLID
  5
1C5
330
1C1
100
AcDbEntity
  8
RIQUADRO
100
AcDbTrace
 10
102.2849567664
 20
232.8066147445
 30
0.0
 11
105.5869567664
 21
232.2986147445
 31
0.0
 12
105.5869567664
 22
233.3146147445
 32
0.0
 13
105.5869567664
 23
233.3146147445
 33
0.0
  0
LINE
  5
1C6
330
1C1
100
AcDbEntity
  8
RIQUADRO
100
AcDbLine
 10
98.2849567664
 20
242.1760381088
 30
0.0
 11
98.2849567664
 21
231.8066147445
 31
0.0
  0
LINE
  5
1C7
330
1C1
100
AcDbEntity
  8
RIQUADRO
100
AcDbLine
 10
102.2849567664
 20
246.1760381088
 30
0.0
 11
102.2849567664
 21
231.8066147445
 31
0.0
  0
LINE
  5
1C8
330
1C1
100
AcDbEntity
  8
RIQUADRO
100
AcDbLine
 10
98.2849567664
 20
232.8066147445
 30
0.0
 11
87.0986347177
 21
232.8066147445
 31
0.0
  0
LINE
  5
1C9
330
1C1
100
AcDbEntity
  8
RIQUADRO
100
AcDbLine
 10
98.2849567664
 20
232.8066147445
 30
0.0
 11
102.2849567664
 21
232.8066147445
 31
0.0
  0
LINE
  5
1CA
330
1C1
100
AcDbEntity
  8
RIQUADRO
100
AcDbLine
 10
102.2849567664
 20
232.8066147445
 30
0.0
 11
108.6349567664
 21
232.8066147445
 31
0.0
  0
MTEXT
  5
1CB
330
1C1
100
AcDbEntity
  8
RIQUADRO
100
AcDbMText
 10
87.0986347177
 20
237.318351659
 30
0.0
 40
3.5
 41
0.0
 71
     1
 72
     1
  1
4
  7
SLDTEXTSTYLE1
 73
     1
 44
1.0
  0
ENDBLK
  5
1C3
330
1C1
100
AcDbEntity
  8
0
100
AcDbBlockEnd
  0
BLOCK
  5
1CE
330
1CD
100
AcDbEntity
  8
0
100
AcDbBlockBegin
  2
_D_5
 70
     0
 10
0.0
 20
0.0
 30
0.0
  3
_D_5
  1

  0
SOLID
  5
1D0
330
1CD
100
AcDbEntity
  8
RIQUADRO
100
AcDbTrace
 10
148.9066986095
 20
247.1760381088
 30
0.0
 11
149.4146986095
 21
250.4780381088
 31
0.0
 12
148.3986986095
 22
250.4780381088
 32
0.0
 13
148.3986986095
 23
250.4780381088
 33
0.0
  0
SOLID
  5
1D1
330
1CD
100
AcDbEntity
  8
RIQUADRO
100
AcDbTrace
 10
148.9066986095
 20
259.1760381088
 30
0.0
 11
148.3986986095
 21
255.8740381088
 31
0.0
 12
149.4146986095
 22
255.8740381088
 32
0.0
 13
149.4146986095
 23
255.8740381088
 33
0.0
  0
LINE
  5
1D2
330
1CD
100
AcDbEntity
  8
RIQUADRO
100
AcDbLine
 10
129.2849567664
 20
247.1760381088
 30
0.0
 11
149.9066986095
 21
247.1760381088
 31
0.0
  0
LINE
  5
1D3
330
1CD
100
AcDbEntity
  8
RIQUADRO
100
AcDbLine
 10
129.2849567664
 20
259.1760381088
 30
0.0
 11
149.9066986095
 21
259.1760381088
 31
0.0
  0
LINE
  5
1D4
330
1CD
100
AcDbEntity
  8
RIQUADRO
100
AcDbLine
 10
148.9066986095
 20
247.1760381088
 30
0.0
 11
148.9066986095
 21
259.1760381088
 31
0.0
  0
LINE
  5
1D5
330
1CD
100
AcDbEntity
  8
RIQUADRO
100
AcDbLine
 10
148.9066986095
 20
259.1760381088
 30
0.0
 11
148.9066986095
 21
269.2037892501
 31
0.0
  0
MTEXT
  5
1D6
330
1CD
100
AcDbEntity
  8
RIQUADRO
100
AcDbMText
 10
144.3949616949
 20
264.031566863
 30
0.0
 40
3.5
 41
0.0
 71
     1
 72
     1
  1
12
  7
SLDTEXTSTYLE1
 11
2.832769448823990E-16
 21
1.0
 31
0.0
 73
     1
 44
1.0
  0
ENDBLK
  5
1CF
330
1CD
100
AcDbEntity
  8
0
100
AcDbBlockEnd
  0
BLOCK
  5
1D9
330
1D8
100
AcDbEntity
  8
0
100
AcDbBlockBegin
  2
_D_6
 70
     0
 10
0.0
 20
0.0
 30
0.0
  3
_D_6
  1

  0
SOLID
  5
1DB
330
1D8
100
AcDbEntity
  8
RIQUADRO
100
AcDbTrace
 10
148.9066986095
 20
243.1760381088
 30
0.0
 11
148.3986986095
 21
239.8740381088
 31
0.0
 12
149.4146986095
 22
239.8740381088
 32
0.0
 13
149.4146986095
 23
239.8740381088
 33
0.0
  0
SOLID
  5
1DC
330
1D8
100
AcDbEntity
  8
RIQUADRO
100
AcDbTrace
 10
148.9066986095
 20
247.1760381088
 30
0.0
 11
149.4146986095
 21
250.4780381088
 31
0.0
 12
148.3986986095
 22
250.4780381088
 32
0.0
 13
148.3986986095
 23
250.4780381088
 33
0.0
  0
LINE
  5
1DD
330
1D8
100
AcDbEntity
  8
RIQUADRO
100
AcDbLine
 10
133.2849567664
 20
243.1760381088
 30
0.0
 11
149.9066986095
 21
243.1760381088
 31
0.0
  0
LINE
  5
1DE
330
1D8
100
AcDbEntity
  8
RIQUADRO
100
AcDbLine
 10
129.2849567664
 20
247.1760381088
 30
0.0
 11
149.9066986095
 21
247.1760381088
 31
0.0
  0
LINE
  5
1DF
330
1D8
100
AcDbEntity
  8
RIQUADRO
100
AcDbLine
 10
148.9066986095
 20
243.1760381088
 30
0.0
 11
148.9066986095
 21
230.0273871082
 31
0.0
  0
LINE
  5
1E0
330
1D8
100
AcDbEntity
  8
RIQUADRO
100
AcDbLine
 10
148.9066986095
 20
243.1760381088
 30
0.0
 11
148.9066986095
 21
247.1760381088
 31
0.0
  0
LINE
  5
1E1
330
1D8
100
AcDbEntity
  8
RIQUADRO
100
AcDbLine
 10
148.9066986095
 20
247.1760381088
 30
0.0
 11
148.9066986095
 21
253.5260381088
 31
0.0
  0
MTEXT
  5
1E2
330
1D8
100
AcDbEntity
  8
RIQUADRO
100
AcDbMText
 10
144.3949616949
 20
230.0273871082
 30
0.0
 40
3.5
 41
0.0
 71
     1
 72
     1
  1
4
  7
SLDTEXTSTYLE1
 11
6.123233995736766E-17
 21
1.0
 31
0.0
 73
     1
 44
1.0
  0
ENDBLK
  5
1DA
330
1D8
100
AcDbEntity
  8
0
100
AcDbBlockEnd
  0
BLOCK
  5
1E5
330
1E4
100
AcDbEntity
  8
0
100
AcDbBlockBegin
  2
_D_7
 70
     0
 10
0.0
 20
0.0
 30
0.0
  3
_D_7
  1

  0
SOLID
  5
1E7
330
1E4
100
AcDbEntity
  8
RIQUADRO
100
AcDbTrace
 10
98.2849567664
 20
271.0532974172
 30
0.0
 11
94.9829567664
 21
271.5612974172
 31
0.0
 12
94.9829567664
 22
270.5452974172
 32
0.0
 13
94.9829567664
 23
270.5452974172
 33
0.0
  0
SOLID
  5
1E8
330
1E4
100
AcDbEntity
  8
RIQUADRO
100
AcDbTrace
 10
115.2849567664
 20
271.0532974172
 30
0.0
 11
118.5869567664
 21
270.5452974172
 31
0.0
 12
118.5869567664
 22
271.5612974172
 32
0.0
 13
118.5869567664
 23
271.5612974172
 33
0.0
  0
LINE
  5
1E9
330
1E4
100
AcDbEntity
  8
RIQUADRO
100
AcDbLine
 10
98.2849567664
 20
264.1760381088
 30
0.0
 11
98.2849567664
 21
272.0532974172
 31
0.0
  0
LINE
  5
1EA
330
1E4
100
AcDbEntity
  8
RIQUADRO
100
AcDbLine
 10
115.2849567664
 20
265.1760381088
 30
0.0
 11
115.2849567664
 21
272.0532974172
 31
0.0
  0
LINE
  5
1EB
330
1E4
100
AcDbEntity
  8
RIQUADRO
100
AcDbLine
 10
98.2849567664
 20
271.0532974172
 30
0.0
 11
91.9349567664
 21
271.0532974172
 31
0.0
  0
LINE
  5
1EC
330
1E4
100
AcDbEntity
  8
RIQUADRO
100
AcDbLine
 10
98.2849567664
 20
271.0532974172
 30
0.0
 11
115.2849567664
 21
271.0532974172
 31
0.0
  0
LINE
  5
1ED
330
1E4
100
AcDbEntity
  8
RIQUADRO
100
AcDbLine
 10
115.2849567664
 20
271.0532974172
 30
0.0
 11
121.6349567664
 21
271.0532974172
 31
0.0
  0
MTEXT
  5
1EE
330
1E4
100
AcDbEntity
  8
RIQUADRO
100
AcDbMText
 10
104.6713664102
 20
275.5650343318
 30
0.0
 40
3.5
 41
0.0
 71
     1
 72
     1
  1
17
  7
SLDTEXTSTYLE1
 73
     1
 44
1.0
  0
ENDBLK
  5
1E6
330
1E4
100
AcDbEntity
  8
0
100
AcDbBlockEnd
  0
BLOCK
  5
1F2
330
1F1
100
AcDbEntity
  8
0
100
AcDbBlockBegin
  2
_D_8
 70
     0
 10
0.0
 20
0.0
 30
0.0
  3
_D_8
  1

  0
SOLID
  5
1F4
330
1F1
100
AcDbEntity
  8
RIQUADRO
100
AcDbTrace
 10
113.156507276
 20
257.061870952
 30
0.0
 11
110.4557948983
 21
255.0952950818
 31
0.0
 12
111.1717928421
 22
254.3744601877
 32
0.0
 13
111.1717928421
 23
254.3744601877
 33
0.0
  0
SOLID
  5
1F5
330
1F1
100
AcDbEntity
  8
RIQUADRO
100
AcDbTrace
 10
117.4134062568
 20
261.2902052656
 30
0.0
 11
120.1141186344
 21
263.2567811358
 31
0.0
 12
119.3981206907
 22
263.9776160299
 32
0.0
 13
119.3981206907
 23
263.9776160299
 33
0.0
  0
LINE
  5
1F6
330
1F1
100
AcDbEntity
  8
RIQUADRO
100
AcDbLine
 10
113.156507276
 20
257.061870952
 30
0.0
 11
108.651289188
 21
252.5868838035
 31
0.0
  0
LINE
  5
1F7
330
1F1
100
AcDbEntity
  8
RIQUADRO
100
AcDbLine
 10
117.4134062568
 20
261.2902052656
 30
0.0
 11
129.0756831051
 21
272.8742258388
 31
0.0
  0
LINE
  5
1F8
330
1F1
100
AcDbEntity
  8
RIQUADRO
100
AcDbLine
 10
113.156507276
 20
257.061870952
 30
0.0
 11
117.4134062568
 21
261.2902052656
 31
0.0
  0
LINE
  5
1F9
330
1F1
100
AcDbEntity
  8
RIQUADRO
100
AcDbLine
 10
129.0756831051
 20
272.8742258388
 30
0.0
 11
143.6569332675
 21
272.8742258388
 31
0.0
  0
MTEXT
  5
1FA
330
1F1
100
AcDbEntity
  8
RIQUADRO
100
AcDbMText
 10
130.6631831051
 20
277.3859627534
 30
0.0
 40
3.5
 41
0.0
 71
     1
 72
     1
  1
2x
  7
SLDTEXTSTYLE1
 73
     1
 44
1.0
  0
MTEXT
  5
1FB
330
1F1
100
AcDbEntity
  8
RIQUADRO
100
AcDbMText
 10
136.7833219067
 20
277.3859627534
 30
0.0
 40
3.5
 41
0.0
 71
     1
 72
     1
  1
M6
  7
SLDTEXTSTYLE1
 73
     1
 44
1.0
  0
ENDBLK
  5
1F3
330
1F1
100
AcDbEntity
  8
0
100
AcDbBlockEnd
  0
BLOCK
  5
1FE
330
1FD
100
AcDbEntity
  8
0
100
AcDbBlockBegin
  2
_D_9
 70
     0
 10
0.0
 20
0.0
 30
0.0
  3
_D_9
  1

  0
SOLID
  5
200
330
1FD
100
AcDbEntity
  8
RIQUADRO
100
AcDbTrace
 10
103.3822215019
 20
258.153291757
 30
0.0
 11
105.4512968419
 21
255.5302791307
 31
0.0
 12
106.1440370375
 22
256.2734931116
 32
0.0
 13
106.1440370375
 23
256.2734931116
 33
0.0
  0
SOLID
  5
201
330
1FD
100
AcDbEntity
  8
RIQUADRO
100
AcDbTrace
 10
101.1876920309
 20
260.1987844606
 30
0.0
 11
99.1186166909
 21
262.8217970869
 31
0.0
 12
98.4258764953
 22
262.078583106
 32
0.0
 13
98.4258764953
 23
262.078583106
 33
0.0
  0
LINE
  5
202
330
1FD
100
AcDbEntity
  8
RIQUADRO
100
AcDbLine
 10
103.3822215019
 20
258.153291757
 30
0.0
 11
108.0273088823
 21
253.8236655342
 31
0.0
  0
LINE
  5
203
330
1FD
100
AcDbEntity
  8
RIQUADRO
100
AcDbLine
 10
101.1876920309
 20
260.1987844606
 30
0.0
 11
87.5887045532
 21
272.8742258388
 31
0.0
  0
LINE
  5
204
330
1FD
100
AcDbEntity
  8
RIQUADRO
100
AcDbLine
 10
103.3822215019
 20
258.153291757
 30
0.0
 11
101.1876920309
 21
260.1987844606
 31
0.0
  0
LINE
  5
205
330
1FD
100
AcDbEntity
  8
RIQUADRO
100
AcDbLine
 10
87.5887045532
 20
272.8742258388
 30
0.0
 11
73.0074543908
 21
272.8742258388
 31
0.0
  0
MTEXT
  5
206
330
1FD
100
AcDbEntity
  8
RIQUADRO
100
AcDbMText
 10
73.0074543908
 20
277.3859627534
 30
0.0
 40
3.5
 41
0.0
 71
     1
 72
     1
  1
4x
  7
SLDTEXTSTYLE1
 73
     1
 44
1.0
  0
MTEXT
  5
207
330
1FD
100
AcDbEntity
  8
RIQUADRO
100
AcDbMText
 10
79.1275931924
 20
277.3859627534
 30
0.0
 40
3.5
 41
0.0
 71
     1
 72
     1
  1
M3
  7
SLDTEXTSTYLE1
 73
     1
 44
1.0
  0
ENDBLK
  5
1FF
330
1FD
100
AcDbEntity
  8
0
100
AcDbBlockEnd
  0
BLOCK
  5
209
330
208
100
AcDbEntity
  8
0
100
AcDbBlockBegin
  2
SW_CENTERMARKSYMBOL_0
 70
     0
 10
0.0
 20
0.0
 30
0.0
  3
SW_CENTERMARKSYMBOL_0
  1

  0
LINE
  5
20B
330
208
100
AcDbEntity
  8
RIQUADRO
 62
     0
100
AcDbLine
 10
0.0
 20
0.0
 30
0.0
 11
0.0
 21
2.5
 31
0.0
  0
LINE
  5
20C
330
208
100
AcDbEntity
  8
RIQUADRO
 62
     0
100
AcDbLine
 10
0.0
 20
0.0
 30
0.0
 11
-2.5
 21
0.0
 31
0.0
  0
LINE
  5
20D
330
208
100
AcDbEntity
  8
RIQUADRO
 62
     0
100
AcDbLine
 10
0.0
 20
0.0
 30
0.0
 11
0.0
 21
-2.5
 31
0.0
  0
LINE
  5
20E
330
208
100
AcDbEntity
  8
RIQUADRO
 62
     0
100
AcDbLine
 10
0.0
 20
0.0
 30
0.0
 11
2.5
 21
0.0
 31
0.0
  0
LINE
  5
20F
330
208
100
AcDbEntity
  8
RIQUADRO
 62
     0
100
AcDbLine
 10
0.0
 20
2.5
 30
0.0
 11
0.0
 21
3.75
 31
0.0
  0
LINE
  5
210
330
208
100
AcDbEntity
  8
RIQUADRO
 62
     0
100
AcDbLine
 10
-2.5
 20
0.0
 30
0.0
 11
-3.75
 21
0.0
 31
0.0
  0
LINE
  5
211
330
208
100
AcDbEntity
  8
RIQUADRO
 62
     0
100
AcDbLine
 10
0.0
 20
-2.5
 30
0.0
 11
0.0
 21
-3.75
 31
0.0
  0
LINE
  5
212
330
208
100
AcDbEntity
  8
RIQUADRO
 62
     0
100
AcDbLine
 10
2.5
 20
0.0
 30
0.0
 11
3.75
 21
0.0
 31
0.0
  0
ENDBLK
  5
20A
330
208
100
AcDbEntity
  8
0
100
AcDbBlockEnd
  0
BLOCK
  5
215
330
214
100
AcDbEntity
  8
0
100
AcDbBlockBegin
  2
SW_CENTERMARKSYMBOL_1
 70
     0
 10
0.0
 20
0.0
 30
0.0
  3
SW_CENTERMARKSYMBOL_1
  1

  0
LINE
  5
217
330
214
100
AcDbEntity
  8
RIQUADRO
 62
     0
100
AcDbLine
 10
0.0
 20
0.0
 30
0.0
 11
0.0
 21
2.5
 31
0.0
  0
LINE
  5
218
330
214
100
AcDbEntity
  8
RIQUADRO
 62
     0
100
AcDbLine
 10
0.0
 20
0.0
 30
0.0
 11
-2.5
 21
0.0
 31
0.0
  0
LINE
  5
219
330
214
100
AcDbEntity
  8
RIQUADRO
 62
     0
100
AcDbLine
 10
0.0
 20
0.0
 30
0.0
 11
0.0
 21
-2.5
 31
0.0
  0
LINE
  5
21A
330
214
100
AcDbEntity
  8
RIQUADRO
 62
     0
100
AcDbLine
 10
0.0
 20
0.0
 30
0.0
 11
2.5
 21
0.0
 31
0.0
  0
LINE
  5
21B
330
214
100
AcDbEntity
  8
RIQUADRO
 62
     0
100
AcDbLine
 10
0.0
 20
2.5
 30
0.0
 11
0.0
 21
5.0
 31
0.0
  0
LINE
  5
21C
330
214
100
AcDbEntity
  8
RIQUADRO
 62
     0
100
AcDbLine
 10
-2.5
 20
0.0
 30
0.0
 11
-5.0
 21
0.0
 31
0.0
  0
LINE
  5
21D
330
214
100
AcDbEntity
  8
RIQUADRO
 62
     0
100
AcDbLine
 10
0.0
 20
-2.5
 30
0.0
 11
0.0
 21
-5.0
 31
0.0
  0
LINE
  5
21E
330
214
100
AcDbEntity
  8
RIQUADRO
 62
     0
100
AcDbLine
 10
2.5
 20
0.0
 30
0.0
 11
5.0
 21
0.0
 31
0.0
  0
ENDBLK
  5
216
330
214
100
AcDbEntity
  8
0
100
AcDbBlockEnd
  0
BLOCK
  5
221
330
220
100
AcDbEntity
  8
0
100
AcDbBlockBegin
  2
SW_CENTERMARKSYMBOL_2
 70
     0
 10
0.0
 20
0.0
 30
0.0
  3
SW_CENTERMARKSYMBOL_2
  1

  0
LINE
  5
223
330
220
100
AcDbEntity
  8
RIQUADRO
 62
     0
100
AcDbLine
 10
0.0
 20
0.0
 30
0.0
 11
0.0
 21
2.5
 31
0.0
  0
LINE
  5
224
330
220
100
AcDbEntity
  8
RIQUADRO
 62
     0
100
AcDbLine
 10
0.0
 20
0.0
 30
0.0
 11
-2.5
 21
0.0
 31
0.0
  0
LINE
  5
225
330
220
100
AcDbEntity
  8
RIQUADRO
 62
     0
100
AcDbLine
 10
0.0
 20
0.0
 30
0.0
 11
0.0
 21
-2.5
 31
0.0
  0
LINE
  5
226
330
220
100
AcDbEntity
  8
RIQUADRO
 62
     0
100
AcDbLine
 10
0.0
 20
0.0
 30
0.0
 11
2.5
 21
0.0
 31
0.0
  0
LINE
  5
227
330
220
100
AcDbEntity
  8
RIQUADRO
 62
     0
100
AcDbLine
 10
0.0
 20
2.5
 30
0.0
 11
0.0
 21
3.75
 31
0.0
  0
LINE
  5
228
330
220
100
AcDbEntity
  8
RIQUADRO
 62
     0
100
AcDbLine
 10
-2.5
 20
0.0
 30
0.0
 11
-3.75
 21
0.0
 31
0.0
  0
LINE
  5
229
330
220
100
AcDbEntity
  8
RIQUADRO
 62
     0
100
AcDbLine
 10
0.0
 20
-2.5
 30
0.0
 11
0.0
 21
-3.75
 31
0.0
  0
LINE
  5
22A
330
220
100
AcDbEntity
  8
RIQUADRO
 62
     0
100
AcDbLine
 10
2.5
 20
0.0
 30
0.0
 11
3.75
 21
0.0
 31
0.0
  0
ENDBLK
  5
222
330
220
100
AcDbEntity
  8
0
100
AcDbBlockEnd
  0
BLOCK
  5
22D
330
22C
100
AcDbEntity
  8
0
100
AcDbBlockBegin
  2
SW_CENTERMARKSYMBOL_3
 70
     0
 10
0.0
 20
0.0
 30
0.0
  3
SW_CENTERMARKSYMBOL_3
  1

  0
LINE
  5
22F
330
22C
100
AcDbEntity
  8
RIQUADRO
 62
     0
100
AcDbLine
 10
0.0
 20
0.0
 30
0.0
 11
0.0
 21
2.5
 31
0.0
  0
LINE
  5
230
330
22C
100
AcDbEntity
  8
RIQUADRO
 62
     0
100
AcDbLine
 10
0.0
 20
0.0
 30
0.0
 11
-2.5
 21
0.0
 31
0.0
  0
LINE
  5
231
330
22C
100
AcDbEntity
  8
RIQUADRO
 62
     0
100
AcDbLine
 10
0.0
 20
0.0
 30
0.0
 11
0.0
 21
-2.5
 31
0.0
  0
LINE
  5
232
330
22C
100
AcDbEntity
  8
RIQUADRO
 62
     0
100
AcDbLine
 10
0.0
 20
0.0
 30
0.0
 11
2.5
 21
0.0
 31
0.0
  0
LINE
  5
233
330
22C
100
AcDbEntity
  8
RIQUADRO
 62
     0
100
AcDbLine
 10
0.0
 20
2.5
 30
0.0
 11
0.0
 21
3.75
 31
0.0
  0
LINE
  5
234
330
22C
100
AcDbEntity
  8
RIQUADRO
 62
     0
100
AcDbLine
 10
-2.5
 20
0.0
 30
0.0
 11
-3.75
 21
0.0
 31
0.0
  0
LINE
  5
235
330
22C
100
AcDbEntity
  8
RIQUADRO
 62
     0
100
AcDbLine
 10
0.0
 20
-2.5
 30
0.0
 11
0.0
 21
-3.75
 31
0.0
  0
LINE
  5
236
330
22C
100
AcDbEntity
  8
RIQUADRO
 62
     0
100
AcDbLine
 10
2.5
 20
0.0
 30
0.0
 11
3.75
 21
0.0
 31
0.0
  0
ENDBLK
  5
22E
330
22C
100
AcDbEntity
  8
0
100
AcDbBlockEnd
  0
BLOCK
  5
239
330
238
100
AcDbEntity
  8
0
100
AcDbBlockBegin
  2
SW_CENTERMARKSYMBOL_4
 70
     0
 10
0.0
 20
0.0
 30
0.0
  3
SW_CENTERMARKSYMBOL_4
  1

  0
LINE
  5
23B
330
238
100
AcDbEntity
  8
RIQUADRO
 62
     0
100
AcDbLine
 10
0.0
 20
0.0
 30
0.0
 11
0.0
 21
2.5
 31
0.0
  0
LINE
  5
23C
330
238
100
AcDbEntity
  8
RIQUADRO
 62
     0
100
AcDbLine
 10
0.0
 20
0.0
 30
0.0
 11
-2.5
 21
0.0
 31
0.0
  0
LINE
  5
23D
330
238
100
AcDbEntity
  8
RIQUADRO
 62
     0
100
AcDbLine
 10
0.0
 20
0.0
 30
0.0
 11
0.0
 21
-2.5
 31
0.0
  0
LINE
  5
23E
330
238
100
AcDbEntity
  8
RIQUADRO
 62
     0
100
AcDbLine
 10
0.0
 20
0.0
 30
0.0
 11
2.5
 21
0.0
 31
0.0
  0
LINE
  5
23F
330
238
100
AcDbEntity
  8
RIQUADRO
 62
     0
100
AcDbLine
 10
0.0
 20
2.5
 30
0.0
 11
0.0
 21
5.0
 31
0.0
  0
LINE
  5
240
330
238
100
AcDbEntity
  8
RIQUADRO
 62
     0
100
AcDbLine
 10
-2.5
 20
0.0
 30
0.0
 11
-5.0
 21
0.0
 31
0.0
  0
LINE
  5
241
330
238
100
AcDbEntity
  8
RIQUADRO
 62
     0
100
AcDbLine
 10
0.0
 20
-2.5
 30
0.0
 11
0.0
 21
-5.0
 31
0.0
  0
LINE
  5
242
330
238
100
AcDbEntity
  8
RIQUADRO
 62
     0
100
AcDbLine
 10
2.5
 20
0.0
 30
0.0
 11
5.0
 21
0.0
 31
0.0
  0
ENDBLK
  5
23A
330
238
100
AcDbEntity
  8
0
100
AcDbBlockEnd
  0
BLOCK
  5
245
330
244
100
AcDbEntity
  8
0
100
AcDbBlockBegin
  2
SW_CENTERMARKSYMBOL_5
 70
     0
 10
0.0
 20
0.0
 30
0.0
  3
SW_CENTERMARKSYMBOL_5
  1

  0
LINE
  5
247
330
244
100
AcDbEntity
  8
RIQUADRO
 62
     0
100
AcDbLine
 10
0.0
 20
0.0
 30
0.0
 11
0.0
 21
2.5
 31
0.0
  0
LINE
  5
248
330
244
100
AcDbEntity
  8
RIQUADRO
 62
     0
100
AcDbLine
 10
0.0
 20
0.0
 30
0.0
 11
-2.5
 21
0.0
 31
0.0
  0
LINE
  5
249
330
244
100
AcDbEntity
  8
RIQUADRO
 62
     0
100
AcDbLine
 10
0.0
 20
0.0
 30
0.0
 11
0.0
 21
-2.5
 31
0.0
  0
LINE
  5
24A
330
244
100
AcDbEntity
  8
RIQUADRO
 62
     0
100
AcDbLine
 10
0.0
 20
0.0
 30
0.0
 11
2.5
 21
0.0
 31
0.0
  0
LINE
  5
24B
330
244
100
AcDbEntity
  8
RIQUADRO
 62
     0
100
AcDbLine
 10
0.0
 20
2.5
 30
0.0
 11
0.0
 21
3.75
 31
0.0
  0
LINE
  5
24C
330
244
100
AcDbEntity
  8
RIQUADRO
 62
     0
100
AcDbLine
 10
-2.5
 20
0.0
 30
0.0
 11
-3.75
 21
0.0
 31
0.0
  0
LINE
  5
24D
330
244
100
AcDbEntity
  8
RIQUADRO
 62
     0
100
AcDbLine
 10
0.0
 20
-2.5
 30
0.0
 11
0.0
 21
-3.75
 31
0.0
  0
LINE
  5
24E
330
244
100
AcDbEntity
  8
RIQUADRO
 62
     0
100
AcDbLine
 10
2.5
 20
0.0
 30
0.0
 11
3.75
 21
0.0
 31
0.0
  0
ENDBLK
  5
246
330
244
100
AcDbEntity
  8
0
100
AcDbBlockEnd
  0
BLOCK
  5
275
330
274
100
AcDbEntity
  8
0
100
AcDbBlockBegin
  2
_D_10
 70
     0
 10
0.0
 20
0.0
 30
0.0
  3
_D_10
  1

  0
SOLID
  5
277
330
274
100
AcDbEntity
  8
RIQUADRO
100
AcDbTrace
 10
170.45615815
 20
151.9565950199
 30
0.0
 11
168.0740725457
 21
154.2990160268
 31
0.0
 12
167.4801464906
 22
153.4746933708
 32
0.0
 13
167.4801464906
 23
153.4746933708
 33
0.0
  0
LINE
  5
278
330
274
100
AcDbEntity
  8
RIQUADRO
100
AcDbLine
 10
170.45615815
 20
151.9565950199
 30
0.0
 11
115.2849567664
 21
191.7075514598
 31
0.0
  0
MTEXT
  5
279
330
274
100
AcDbEntity
  8
RIQUADRO
100
AcDbMText
 10
155.1184179262
 20
168.5630158873
 30
0.0
 40
3.5
 41
0.0
 71
     1
 72
     1
  1
R68
  7
SLDTEXTSTYLE1
 11
0.8113411968185308
 21
-0.584572888821466
 31
0.0
 73
     1
 44
1.0
  0
ENDBLK
  5
276
330
274
100
AcDbEntity
  8
0
100
AcDbBlockEnd
  0
BLOCK
  5
27D
330
27C
100
AcDbEntity
  8
0
100
AcDbBlockBegin
  2
_D_11
 70
     0
 10
0.0
 20
0.0
 30
0.0
  3
_D_11
  1

  0
ARC
  5
27F
330
27C
100
AcDbEntity
  8
RIQUADRO
100
AcDbCircle
 10
115.2849567664
 20
191.7075514598
 30
0.0
 40
28.02676551160128
100
AcDbArc
 50
198.0
 51
270.0
  0
SOLID
  5
280
330
27C
100
AcDbEntity
  8
RIQUADRO
100
AcDbTrace
 10
88.6299187959
 20
183.0468046194
 30
0.0
 11
89.359472099
 21
179.7865868386
 31
0.0
 12
90.3056853832
 22
180.1566360525
 32
0.0
 13
90.3056853832
 23
180.1566360525
 33
0.0
  0
SOLID
  5
281
330
27C
100
AcDbEntity
  8
RIQUADRO
100
AcDbTrace
 10
115.2849567664
 20
163.6807859482
 30
0.0
 11
112.0184027636
 21
164.3814234771
 31
0.0
 12
111.9588610325
 22
163.3671696715
 32
0.0
 13
111.9588610325
 23
163.3671696715
 33
0.0
  0
MTEXT
  5
282
330
27C
100
AcDbEntity
  8
RIQUADRO
100
AcDbMText
 10
95.4624940571
 20
178.576937171
 30
0.0
 40
3.5
 41
0.0
 71
     1
 72
     1
  1
72°
  7
SLDTEXTSTYLE1
 11
0.6695595203541905
 21
-0.7427584053398967
 31
0.0
 73
     1
 44
1.0
  0
ENDBLK
  5
27E
330
27C
100
AcDbEntity
  8
0
100
AcDbBlockEnd
  0
BLOCK
  5
285
330
284
100
AcDbEntity
  8
0
100
AcDbBlockBegin
  2
_D_12
 70
     0
 10
0.0
 20
0.0
 30
0.0
  3
_D_12
  1

  0
ARC
  5
287
330
284
100
AcDbEntity
  8
RIQUADRO
100
AcDbCircle
 10
115.2849567664
 20
191.7075514598
 30
0.0
 40
28.02676551160121
100
AcDbArc
 50
270.0
 51
342.0
  0
SOLID
  5
288
330
284
100
AcDbEntity
  8
RIQUADRO
100
AcDbTrace
 10
115.2849567664
 20
163.6807859482
 30
0.0
 11
118.6110525003
 21
163.3671696715
 31
0.0
 12
118.5515107692
 22
164.3814234771
 32
0.0
 13
118.5515107692
 23
164.3814234771
 33
0.0
  0
SOLID
  5
289
330
284
100
AcDbEntity
  8
RIQUADRO
100
AcDbTrace
 10
141.9399947369
 20
183.0468046194
 30
0.0
 11
140.2642281495
 21
180.1566360525
 31
0.0
 12
141.2104414338
 22
179.7865868386
 32
0.0
 13
141.2104414338
 23
179.7865868386
 33
0.0
  0
MTEXT
  5
28A
330
284
100
AcDbEntity
  8
RIQUADRO
100
AcDbMText
 10
126.8635489445
 20
170.940287253
 30
0.0
 40
3.5
 41
0.0
 71
     1
 72
     1
  1
72°
  7
SLDTEXTSTYLE1
 11
0.7917185711016965
 21
0.6108859993261329
 31
0.0
 73
     1
 44
1.0
  0
ENDBLK
  5
286
330
284
100
AcDbEntity
  8
0
100
AcDbBlockEnd
  0
BLOCK
  5
28D
330
28C
100
AcDbEntity
  8
0
100
AcDbBlockBegin
  2
_D_13
 70
     0
 10
0.0
 20
0.0
 30
0.0
  3
_D_13
  1

  0
SOLID
  5
28F
330
28C
100
AcDbEntity
  8
RIQUADRO
100
AcDbTrace
 10
80.4470696648
 20
139.2163938969
 30
0.0
 11
82.6962793672
 21
141.6866820814
 31
0.0
 12
81.8497553024
 22
142.2485121337
 32
0.0
 13
81.8497553024
 23
142.2485121337
 33
0.0
  0
LINE
  5
290
330
28C
100
AcDbEntity
  8
RIQUADRO
100
AcDbLine
 10
80.4470696648
 20
139.2163938969
 30
0.0
 11
115.2849567664
 21
191.7075514598
 31
0.0
  0
MTEXT
  5
291
330
28C
100
AcDbEntity
  8
RIQUADRO
100
AcDbMText
 10
82.9829935283
 20
151.1877548981
 30
0.0
 40
3.5
 41
0.0
 71
     1
 72
     1
  1
R63
  7
SLDTEXTSTYLE1
 11
0.5529823349458202
 21
0.8331929771894797
 31
0.0
 73
     1
 44
1.0
  0
ENDBLK
  5
28E
330
28C
100
AcDbEntity
  8
0
100
AcDbBlockEnd
  0
BLOCK
  5
294
330
293
100
AcDbEntity
  8
0
100
AcDbBlockBegin
  2
_D_14
 70
     0
 10
0.0
 20
0.0
 30
0.0
  3
_D_14
  1

  0
SOLID
  5
296
330
293
100
AcDbEntity
  8
RIQUADRO
100
AcDbTrace
 10
45.6131136583
 20
82.1301632172
 30
0.0
 11
48.9151136583
 21
81.6221632172
 31
0.0
 12
48.9151136583
 22
82.6381632172
 32
0.0
 13
48.9151136583
 23
82.6381632172
 33
0.0
  0
SOLID
  5
297
330
293
100
AcDbEntity
  8
RIQUADRO
100
AcDbTrace
 10
184.9567998744
 20
82.1301632172
 30
0.0
 11
181.6547998744
 21
82.6381632172
 31
0.0
 12
181.6547998744
 22
81.6221632172
 32
0.0
 13
181.6547998744
 23
81.6221632172
 33
0.0
  0
LINE
  5
298
330
293
100
AcDbEntity
  8
RIQUADRO
100
AcDbLine
 10
45.6131136583
 20
169.6943958423
 30
0.0
 11
45.6131136583
 21
81.1301632172
 31
0.0
  0
LINE
  5
299
330
293
100
AcDbEntity
  8
RIQUADRO
100
AcDbLine
 10
184.9567998744
 20
169.6943958423
 30
0.0
 11
184.9567998744
 21
81.1301632172
 31
0.0
  0
LINE
  5
29A
330
293
100
AcDbEntity
  8
RIQUADRO
100
AcDbLine
 10
45.6131136583
 20
82.1301632172
 30
0.0
 11
184.9567998744
 21
82.1301632172
 31
0.0
  0
MTEXT
  5
29B
330
293
100
AcDbEntity
  8
RIQUADRO
100
AcDbMText
 10
106.4519989026
 20
86.6419001318
 30
0.0
 40
3.5
 41
0.0
 71
     1
 72
     1
  1
139.34
  7
SLDTEXTSTYLE1
 73
     1
 44
1.0
  0
ENDBLK
  5
295
330
293
100
AcDbEntity
  8
0
100
AcDbBlockEnd
  0
BLOCK
  5
29E
330
29D
100
AcDbEntity
  8
0
100
AcDbBlockBegin
  2
_D_15
 70
     0
 10
0.0
 20
0.0
 30
0.0
  3
_D_15
  1

  0
SOLID
  5
2A0
330
29D
100
AcDbEntity
  8
RIQUADRO
100
AcDbTrace
 10
192.180860422
 20
99.7075514598
 30
0.0
 11
192.688860422
 21
103.0095514598
 31
0.0
 12
191.672860422
 22
103.0095514598
 32
0.0
 13
191.672860422
 23
103.0095514598
 33
0.0
  0
SOLID
  5
2A1
330
29D
100
AcDbEntity
  8
RIQUADRO
100
AcDbTrace
 10
192.180860422
 20
191.7075514598
 30
0.0
 11
191.672860422
 21
188.4055514598
 31
0.0
 12
192.688860422
 22
188.4055514598
 32
0.0
 13
192.688860422
 23
188.4055514598
 33
0.0
  0
LINE
  5
2A2
330
29D
100
AcDbEntity
  8
RIQUADRO
100
AcDbLine
 10
133.2849567664
 20
99.7075514598
 30
0.0
 11
193.180860422
 21
99.7075514598
 31
0.0
  0
LINE
  5
2A3
330
29D
100
AcDbEntity
  8
RIQUADRO
100
AcDbLine
 10
121.2849567664
 20
191.7075514598
 30
0.0
 11
193.180860422
 21
191.7075514598
 31
0.0
  0
LINE
  5
2A4
330
29D
100
AcDbEntity
  8
RIQUADRO
100
AcDbLine
 10
192.180860422
 20
99.7075514598
 30
0.0
 11
192.180860422
 21
191.7075514598
 31
0.0
  0
MTEXT
  5
2A5
330
29D
100
AcDbEntity
  8
RIQUADRO
100
AcDbMText
 10
187.6691235074
 20
139.0478265106
 30
0.0
 40
3.5
 41
0.0
 71
     1
 72
     1
  1
92
  7
SLDTEXTSTYLE1
 11
6.123233995736766E-17
 21
1.0
 31
0.0
 73
     1
 44
1.0
  0
ENDBLK
  5
29F
330
29D
100
AcDbEntity
  8
0
100
AcDbBlockEnd
  0
BLOCK
  5
2A8
330
2A7
100
AcDbEntity
  8
0
100
AcDbBlockBegin
  2
_D_16
 70
     0
 10
0.0
 20
0.0
 30
0.0
  3
_D_16
  1

  0
SOLID
  5
2AA
330
2A7
100
AcDbEntity
  8
RIQUADRO
100
AcDbTrace
 10
36.5744920771
 20
99.7075514598
 30
0.0
 11
37.0824920771
 21
103.0095514598
 31
0.0
 12
36.0664920771
 22
103.0095514598
 32
0.0
 13
36.0664920771
 23
103.0095514598
 33
0.0
  0
SOLID
  5
2AB
330
2A7
100
AcDbEntity
  8
RIQUADRO
100
AcDbTrace
 10
36.5744920771
 20
175.6943958423
 30
0.0
 11
36.0664920771
 21
172.3923958423
 31
0.0
 12
37.0824920771
 22
172.3923958423
 32
0.0
 13
37.0824920771
 23
172.3923958423
 33
0.0
  0
LINE
  5
2AC
330
2A7
100
AcDbEntity
  8
RIQUADRO
100
AcDbLine
 10
97.2849567664
 20
99.7075514598
 30
0.0
 11
35.5744920771
 21
99.7075514598
 31
0.0
  0
LINE
  5
2AD
330
2A7
100
AcDbEntity
  8
RIQUADRO
100
AcDbLine
 10
49.6131136583
 20
175.6943958423
 30
0.0
 11
35.5744920771
 21
175.6943958423
 31
0.0
  0
LINE
  5
2AE
330
2A7
100
AcDbEntity
  8
RIQUADRO
100
AcDbLine
 10
36.5744920771
 20
99.7075514598
 30
0.0
 11
36.5744920771
 21
175.6943958423
 31
0.0
  0
MTEXT
  5
2AF
330
2A7
100
AcDbEntity
  8
RIQUADRO
100
AcDbMText
 10
32.0627551625
 20
132.6820788617
 30
0.0
 40
3.5
 41
0.0
 71
     1
 72
     1
  1
75.99
  7
SLDTEXTSTYLE1
 11
6.123233995736766E-17
 21
1.0
 31
0.0
 73
     1
 44
1.0
  0
ENDBLK
  5
2A9
330
2A7
100
AcDbEntity
  8
0
100
AcDbBlockEnd
  0
BLOCK
  5
2B3
330
2B2
100
AcDbEntity
  8
0
100
AcDbBlockBegin
  2
_D_17
 70
     0
 10
0.0
 20
0.0
 30
0.0
  3
_D_17
  1

  0
SOLID
  5
2B5
330
2B2
100
AcDbEntity
  8
RIQUADRO
100
AcDbTrace
 10
134.8297483148
 20
116.1476113028
 30
0.0
 11
137.463623643
 21
114.0923816914
 31
0.0
 12
137.9595828174
 22
114.9791062807
 32
0.0
 13
137.9595828174
 23
114.9791062807
 33
0.0
  0
LINE
  5
2B6
330
2B2
100
AcDbEntity
  8
RIQUADRO
100
AcDbLine
 10
134.8297483148
 20
116.1476113028
 30
0.0
 11
152.2849567664
 21
106.384635429
 31
0.0
  0
MTEXT
  5
2B7
330
2B2
100
AcDbEntity
  8
RIQUADRO
100
AcDbMText
 10
143.2603948155
 20
116.4654657944
 30
0.0
 40
3.5
 41
0.0
 71
     1
 72
     1
  1
R20
  7
SLDTEXTSTYLE1
 11
0.8727604225770393
 21
-0.4881487936921975
 31
0.0
 73
     1
 44
1.0
  0
ENDBLK
  5
2B4
330
2B2
100
AcDbEntity
  8
0
100
AcDbBlockEnd
  0
BLOCK
  5
2BA
330
2B9
100
AcDbEntity
  8
0
100
AcDbBlockBegin
  2
_D_18
 70
     0
 10
0.0
 20
0.0
 30
0.0
  3
_D_18
  1

  0
SOLID
  5
2BC
330
2B9
100
AcDbEntity
  8
RIQUADRO
100
AcDbTrace
 10
95.8873766692
 20
115.8796242949
 30
0.0
 11
92.7400444261
 21
114.7591030987
 31
0.0
 12
93.2223898605
 22
113.8649001676
 32
0.0
 13
93.2223898605
 23
113.8649001676
 33
0.0
  0
LINE
  5
2BD
330
2B9
100
AcDbEntity
  8
RIQUADRO
100
AcDbLine
 10
95.8873766692
 20
115.8796242949
 30
0.0
 11
78.2849567664
 21
106.384635429
 31
0.0
  0
MTEXT
  5
2BE
330
2B9
100
AcDbEntity
  8
RIQUADRO
100
AcDbMText
 10
80.6497943789
 20
112.6582931777
 30
0.0
 40
3.5
 41
0.0
 71
     1
 72
     1
  1
R20
  7
SLDTEXTSTYLE1
 11
0.8801209951428403
 21
0.474749443294857
 31
0.0
 73
     1
 44
1.0
  0
ENDBLK
  5
2BB
330
2B9
100
AcDbEntity
  8
0
100
AcDbBlockEnd
  0
BLOCK
  5
2C1
330
2C0
100
AcDbEntity
  8
0
100
AcDbBlockBegin
  2
_D_19
 70
     0
 10
0.0
 20
0.0
 30
0.0
  3
_D_19
  1

  0
SOLID
  5
2C3
330
2C0
100
AcDbEntity
  8
RIQUADRO
100
AcDbTrace
 10
98.2849567664
 20
91.6271668022
 30
0.0
 11
101.5869567664
 21
91.1191668022
 31
0.0
 12
101.5869567664
 22
92.1351668022
 32
0.0
 13
101.5869567664
 23
92.1351668022
 33
0.0
  0
SOLID
  5
2C4
330
2C0
100
AcDbEntity
  8
RIQUADRO
100
AcDbTrace
 10
132.2849567664
 20
91.6271668022
 30
0.0
 11
128.9829567664
 21
92.1351668022
 31
0.0
 12
128.9829567664
 22
91.1191668022
 32
0.0
 13
128.9829567664
 23
91.1191668022
 33
0.0
  0
LINE
  5
2C5
330
2C0
100
AcDbEntity
  8
RIQUADRO
100
AcDbLine
 10
98.2849567664
 20
98.7075514598
 30
0.0
 11
98.2849567664
 21
90.6271668022
 31
0.0
  0
LINE
  5
2C6
330
2C0
100
AcDbEntity
  8
RIQUADRO
100
AcDbLine
 10
132.2849567664
 20
98.7075514598
 30
0.0
 11
132.2849567664
 21
90.6271668022
 31
0.0
  0
LINE
  5
2C7
330
2C0
100
AcDbEntity
  8
RIQUADRO
100
AcDbLine
 10
98.2849567664
 20
91.6271668022
 30
0.0
 11
132.2849567664
 21
91.6271668022
 31
0.0
  0
MTEXT
  5
2C8
330
2C0
100
AcDbEntity
  8
RIQUADRO
100
AcDbMText
 10
110.9776936659
 20
96.1389037168
 30
0.0
 40
3.5
 41
0.0
 71
     1
 72
     1
  1
34
  7
SLDTEXTSTYLE1
 73
     1
 44
1.0
  0
ENDBLK
  5
2C2
330
2C0
100
AcDbEntity
  8
0
100
AcDbBlockEnd
  0
BLOCK
  5
2CB
330
2CA
100
AcDbEntity
  8
0
100
AcDbBlockBegin
  2
_D_20
 70
     0
 10
0.0
 20
0.0
 30
0.0
  3
_D_20
  1

  0
SOLID
  5
2CD
330
2CA
100
AcDbEntity
  8
RIQUADRO
100
AcDbTrace
 10
147.8463491044
 20
137.7746697548
 30
0.0
 11
149.1180921773
 21
134.6853433627
 31
0.0
 12
149.9878669045
 22
135.2104604201
 32
0.0
 13
149.9878669045
 23
135.2104604201
 33
0.0
  0
SOLID
  5
2CE
330
2CA
100
AcDbEntity
  8
RIQUADRO
100
AcDbTrace
 10
153.0148240787
 20
129.213894881
 30
0.0
 11
151.7430810058
 21
132.303221273
 31
0.0
 12
150.8733062786
 22
131.7781042156
 32
0.0
 13
150.8733062786
 23
131.7781042156
 33
0.0
  0
LINE
  5
2CF
330
2CA
100
AcDbEntity
  8
RIQUADRO
100
AcDbLine
 10
147.8463491044
 20
137.7746697548
 30
0.0
 11
142.3796643089
 21
146.829382813
 31
0.0
  0
LINE
  5
2D0
330
2CA
100
AcDbEntity
  8
RIQUADRO
100
AcDbLine
 10
147.8463491044
 20
137.7746697548
 30
0.0
 11
153.0148240787
 21
129.213894881
 31
0.0
  0
MTEXT
  5
2D1
330
2CA
100
AcDbEntity
  8
RIQUADRO
100
AcDbMText
 10
146.2420607104
 20
149.1612627463
 30
0.0
 40
3.5
 41
0.0
 71
     1
 72
     1
  1
10
  7
SLDTEXTSTYLE1
 11
0.5168474974289816
 21
-0.8560774873814863
 31
0.0
 73
     1
 44
1.0
  0
ENDBLK
  5
2CC
330
2CA
100
AcDbEntity
  8
0
100
AcDbBlockEnd
  0
BLOCK
  5
2D3
330
2D2
100
AcDbEntity
  8
0
100
AcDbBlockBegin
  2
SW_CENTERMARKSYMBOL_6
 70
     0
 10
0.0
 20
0.0
 30
0.0
  3
SW_CENTERMARKSYMBOL_6
  1

  0
LINE
  5
2D5
330
2D2
100
AcDbEntity
  8
RIQUADRO
 62
     0
100
AcDbLine
 10
0.0
 20
0.0
 30
0.0
 11
0.0
 21
2.5
 31
0.0
  0
LINE
  5
2D6
330
2D2
100
AcDbEntity
  8
RIQUADRO
 62
     0
100
AcDbLine
 10
0.0
 20
0.0
 30
0.0
 11
-2.5
 21
0.0
 31
0.0
  0
LINE
  5
2D7
330
2D2
100
AcDbEntity
  8
RIQUADRO
 62
     0
100
AcDbLine
 10
0.0
 20
0.0
 30
0.0
 11
0.0
 21
-2.5
 31
0.0
  0
LINE
  5
2D8
330
2D2
100
AcDbEntity
  8
RIQUADRO
 62
     0
100
AcDbLine
 10
0.0
 20
0.0
 30
0.0
 11
2.5
 21
0.0
 31
0.0
  0
LINE
  5
2D9
330
2D2
100
AcDbEntity
  8
RIQUADRO
 62
     0
100
AcDbLine
 10
0.0
 20
2.5
 30
0.0
 11
0.0
 21
4.2
 31
0.0
  0
LINE
  5
2DA
330
2D2
100
AcDbEntity
  8
RIQUADRO
 62
     0
100
AcDbLine
 10
-2.5
 20
0.0
 30
0.0
 11
-4.2
 21
0.0
 31
0.0
  0
LINE
  5
2DB
330
2D2
100
AcDbEntity
  8
RIQUADRO
 62
     0
100
AcDbLine
 10
0.0
 20
-2.5
 30
0.0
 11
0.0
 21
-4.2
 31
0.0
  0
LINE
  5
2DC
330
2D2
100
AcDbEntity
  8
RIQUADRO
 62
     0
100
AcDbLine
 10
2.5
 20
0.0
 30
0.0
 11
4.2
 21
0.0
 31
0.0
  0
ENDBLK
  5
2D4
330
2D2
100
AcDbEntity
  8
0
100
AcDbBlockEnd
  0
BLOCK
  5
2DF
330
2DE
100
AcDbEntity
  8
0
100
AcDbBlockBegin
  2
SW_CENTERMARKSYMBOL_7
 70
     0
 10
0.0
 20
0.0
 30
0.0
  3
SW_CENTERMARKSYMBOL_7
  1

  0
LINE
  5
2E1
330
2DE
100
AcDbEntity
  8
RIQUADRO
 62
     0
100
AcDbLine
 10
0.0
 20
0.0
 30
0.0
 11
0.0
 21
2.5
 31
0.0
  0
LINE
  5
2E2
330
2DE
100
AcDbEntity
  8
RIQUADRO
 62
     0
100
AcDbLine
 10
0.0
 20
0.0
 30
0.0
 11
-2.5
 21
0.0
 31
0.0
  0
LINE
  5
2E3
330
2DE
100
AcDbEntity
  8
RIQUADRO
 62
     0
100
AcDbLine
 10
0.0
 20
0.0
 30
0.0
 11
0.0
 21
-2.5
 31
0.0
  0
LINE
  5
2E4
330
2DE
100
AcDbEntity
  8
RIQUADRO
 62
     0
100
AcDbLine
 10
0.0
 20
0.0
 30
0.0
 11
2.5
 21
0.0
 31
0.0
  0
LINE
  5
2E5
330
2DE
100
AcDbEntity
  8
RIQUADRO
 62
     0
100
AcDbLine
 10
0.0
 20
2.5
 30
0.0
 11
0.0
 21
4.2
 31
0.0
  0
LINE
  5
2E6
330
2DE
100
AcDbEntity
  8
RIQUADRO
 62
     0
100
AcDbLine
 10
-2.5
 20
0.0
 30
0.0
 11
-4.2
 21
0.0
 31
0.0
  0
LINE
  5
2E7
330
2DE
100
AcDbEntity
  8
RIQUADRO
 62
     0
100
AcDbLine
 10
0.0
 20
-2.5
 30
0.0
 11
0.0
 21
-4.2
 31
0.0
  0
LINE
  5
2E8
330
2DE
100
AcDbEntity
  8
RIQUADRO
 62
     0
100
AcDbLine
 10
2.5
 20
0.0
 30
0.0
 11
4.2
 21
0.0
 31
0.0
  0
ENDBLK
  5
2E0
330
2DE
100
AcDbEntity
  8
0
100
AcDbBlockEnd
  0
BLOCK
  5
2EB
330
2EA
100
AcDbEntity
  8
0
100
AcDbBlockBegin
  2
SW_CENTERMARKSYMBOL_8
 70
     0
 10
0.0
 20
0.0
 30
0.0
  3
SW_CENTERMARKSYMBOL_8
  1

  0
LINE
  5
2ED
330
2EA
100
AcDbEntity
  8
RIQUADRO
 62
     0
100
AcDbLine
 10
0.0
 20
0.0
 30
0.0
 11
0.0
 21
2.5
 31
0.0
  0
LINE
  5
2EE
330
2EA
100
AcDbEntity
  8
RIQUADRO
 62
     0
100
AcDbLine
 10
0.0
 20
0.0
 30
0.0
 11
-2.5
 21
0.0
 31
0.0
  0
LINE
  5
2EF
330
2EA
100
AcDbEntity
  8
RIQUADRO
 62
     0
100
AcDbLine
 10
0.0
 20
0.0
 30
0.0
 11
0.0
 21
-2.5
 31
0.0
  0
LINE
  5
2F0
330
2EA
100
AcDbEntity
  8
RIQUADRO
 62
     0
100
AcDbLine
 10
0.0
 20
0.0
 30
0.0
 11
2.5
 21
0.0
 31
0.0
  0
LINE
  5
2F1
330
2EA
100
AcDbEntity
  8
RIQUADRO
 62
     0
100
AcDbLine
 10
0.0
 20
2.5
 30
0.0
 11
0.0
 21
4.2
 31
0.0
  0
LINE
  5
2F2
330
2EA
100
AcDbEntity
  8
RIQUADRO
 62
     0
100
AcDbLine
 10
-2.5
 20
0.0
 30
0.0
 11
-4.2
 21
0.0
 31
0.0
  0
LINE
  5
2F3
330
2EA
100
AcDbEntity
  8
RIQUADRO
 62
     0
100
AcDbLine
 10
0.0
 20
-2.5
 30
0.0
 11
0.0
 21
-4.2
 31
0.0
  0
LINE
  5
2F4
330
2EA
100
AcDbEntity
  8
RIQUADRO
 62
     0
100
AcDbLine
 10
2.5
 20
0.0
 30
0.0
 11
4.2
 21
0.0
 31
0.0
  0
ENDBLK
  5
2EC
330
2EA
100
AcDbEntity
  8
0
100
AcDbBlockEnd
  0
BLOCK
  5
2F7
330
2F6
100
AcDbEntity
  8
0
100
AcDbBlockBegin
  2
SW_CENTERMARKSYMBOL_9
 70
     0
 10
0.0
 20
0.0
 30
0.0
  3
SW_CENTERMARKSYMBOL_9
  1

  0
LINE
  5
2F9
330
2F6
100
AcDbEntity
  8
RIQUADRO
 62
     0
100
AcDbLine
 10
0.0
 20
0.0
 30
0.0
 11
0.0
 21
5.0
 31
0.0
  0
LINE
  5
2FA
330
2F6
100
AcDbEntity
  8
RIQUADRO
 62
     0
100
AcDbLine
 10
0.0
 20
0.0
 30
0.0
 11
-5.0
 21
0.0
 31
0.0
  0
LINE
  5
2FB
330
2F6
100
AcDbEntity
  8
RIQUADRO
 62
     0
100
AcDbLine
 10
0.0
 20
0.0
 30
0.0
 11
0.0
 21
-5.0
 31
0.0
  0
LINE
  5
2FC
330
2F6
100
AcDbEntity
  8
RIQUADRO
 62
     0
100
AcDbLine
 10
0.0
 20
0.0
 30
0.0
 11
5.0
 21
0.0
 31
0.0
  0
ENDBLK
  5
2F8
330
2F6
100
AcDbEntity
  8
0
100
AcDbBlockEnd
  0
BLOCK
  5
318
330
317
100
AcDbEntity
  8
0
100
AcDbBlockBegin
  2
_D_21
 70
     0
 10
0.0
 20
0.0
 30
0.0
  3
_D_21
  1

  0
SOLID
  5
31A
330
317
100
AcDbEntity
  8
RIQUADRO
100
AcDbTrace
 10
43.4837402115
 20
220.1898834306
 30
0.0
 11
46.7857402115
 21
219.6818834306
 31
0.0
 12
46.7857402115
 22
220.6978834306
 32
0.0
 13
46.7857402115
 23
220.6978834306
 33
0.0
  0
SOLID
  5
31B
330
317
100
AcDbEntity
  8
RIQUADRO
100
AcDbTrace
 10
38.4837402115
 20
220.1898834306
 30
0.0
 11
35.1817402115
 21
220.6978834306
 31
0.0
 12
35.1817402115
 22
219.6818834306
 32
0.0
 13
35.1817402115
 23
219.6818834306
 33
0.0
  0
LINE
  5
31C
330
317
100
AcDbEntity
  8
RIQUADRO
100
AcDbLine
 10
43.4837402115
 20
212.6670094999
 30
0.0
 11
43.4837402115
 21
221.1898834306
 31
0.0
  0
LINE
  5
31D
330
317
100
AcDbEntity
  8
RIQUADRO
100
AcDbLine
 10
38.4837402115
 20
210.9170094999
 30
0.0
 11
38.4837402115
 21
221.1898834306
 31
0.0
  0
LINE
  5
31E
330
317
100
AcDbEntity
  8
RIQUADRO
100
AcDbLine
 10
43.4837402115
 20
220.1898834306
 30
0.0
 11
49.8337402115
 21
220.1898834306
 31
0.0
  0
LINE
  5
31F
330
317
100
AcDbEntity
  8
RIQUADRO
100
AcDbLine
 10
43.4837402115
 20
220.1898834306
 30
0.0
 11
38.4837402115
 21
220.1898834306
 31
0.0
  0
LINE
  5
320
330
317
100
AcDbEntity
  8
RIQUADRO
100
AcDbLine
 10
38.4837402115
 20
220.1898834306
 30
0.0
 11
29.7051529022
 21
220.1898834306
 31
0.0
  0
MTEXT
  5
321
330
317
100
AcDbEntity
  8
RIQUADRO
100
AcDbMText
 10
29.7051529022
 20
224.7016203452
 30
0.0
 40
3.5
 41
0.0
 71
     1
 72
     1
  1
5
  7
SLDTEXTSTYLE1
 73
     1
 44
1.0
  0
ENDBLK
  5
319
330
317
100
AcDbEntity
  8
0
100
AcDbBlockEnd
  0
BLOCK
  5
325
330
324
100
AcDbEntity
  8
0
100
AcDbBlockBegin
  2
_D_22
 70
     0
 10
0.0
 20
0.0
 30
0.0
  3
_D_22
  1

  0
SOLID
  5
327
330
324
100
AcDbEntity
  8
RIQUADRO
100
AcDbTrace
 10
22.5124361288
 20
208.3670094999
 30
0.0
 11
23.0204361288
 21
211.6690094999
 31
0.0
 12
22.0044361288
 22
211.6690094999
 32
0.0
 13
22.0044361288
 23
211.6690094999
 33
0.0
  0
SOLID
  5
328
330
324
100
AcDbEntity
  8
RIQUADRO
100
AcDbTrace
 10
22.5124361288
 20
204.9670094999
 30
0.0
 11
22.0044361288
 21
201.6650094999
 31
0.0
 12
23.0204361288
 22
201.6650094999
 32
0.0
 13
23.0204361288
 23
201.6650094999
 33
0.0
  0
LINE
  5
329
330
324
100
AcDbEntity
  8
RIQUADRO
100
AcDbLine
 10
27.4837402115
 20
208.3670094999
 30
0.0
 11
21.5124361288
 21
208.3670094999
 31
0.0
  0
LINE
  5
32A
330
324
100
AcDbEntity
  8
RIQUADRO
100
AcDbLine
 10
27.4837402115
 20
204.9670094999
 30
0.0
 11
21.5124361288
 21
204.9670094999
 31
0.0
  0
LINE
  5
32B
330
324
100
AcDbEntity
  8
RIQUADRO
100
AcDbLine
 10
22.5124361288
 20
208.3670094999
 30
0.0
 11
22.5124361288
 21
234.8417119131
 31
0.0
  0
LINE
  5
32C
330
324
100
AcDbEntity
  8
RIQUADRO
100
AcDbLine
 10
22.5124361288
 20
208.3670094999
 30
0.0
 11
22.5124361288
 21
204.9670094999
 31
0.0
  0
LINE
  5
32D
330
324
100
AcDbEntity
  8
RIQUADRO
100
AcDbLine
 10
22.5124361288
 20
204.9670094999
 30
0.0
 11
22.5124361288
 21
198.6170094999
 31
0.0
  0
MTEXT
  5
32E
330
324
100
AcDbEntity
  8
RIQUADRO
100
AcDbMText
 10
17.947226863
 20
213.0986900077
 30
0.0
 40
3.5
 41
0.0
 71
     1
 72
     1
  1
3x
  7
SLDTEXTSTYLE1
 11
-1.059690869644414E-14
 21
1.0
 31
0.0
 73
     1
 44
1.0
  0
MTEXT
  5
32F
330
324
100
AcDbEntity
  8
RIQUADRO
100
AcDbMText
 10
18.0006990396
 20
219.2188288093
 30
0.0
 40
3.5
 41
0.0
 71
     1
 72
     1
  1
%%c
  7
SLDTEXTSTYLE1
 11
-1.059690869644414E-14
 21
1.0
 31
0.0
 73
     1
 44
1.0
  0
MTEXT
  5
330
330
324
100
AcDbEntity
  8
RIQUADRO
100
AcDbMText
 10
17.947226863
 20
225.8097662077
 30
0.0
 40
3.5
 41
0.0
 71
     1
 72
     1
  1
3.40
  7
SLDTEXTSTYLE1
 11
-1.059690869644414E-14
 21
1.0
 31
0.0
 73
     1
 44
1.0
  0
ENDBLK
  5
326
330
324
100
AcDbEntity
  8
0
100
AcDbBlockEnd
  0
BLOCK
  5
333
330
332
100
AcDbEntity
  8
0
100
AcDbBlockBegin
  2
_D_23
 70
     0
 10
0.0
 20
0.0
 30
0.0
  3
_D_23
  1

  0
SOLID
  5
335
330
332
100
AcDbEntity
  8
RIQUADRO
100
AcDbTrace
 10
56.9958793963
 20
203.4170094999
 30
0.0
 11
56.4878793963
 21
200.1150094999
 31
0.0
 12
57.5038793963
 22
200.1150094999
 32
0.0
 13
57.5038793963
 23
200.1150094999
 33
0.0
  0
SOLID
  5
336
330
332
100
AcDbEntity
  8
RIQUADRO
100
AcDbTrace
 10
56.9958793963
 20
209.9170094999
 30
0.0
 11
57.5038793963
 21
213.2190094999
 31
0.0
 12
56.4878793963
 22
213.2190094999
 32
0.0
 13
56.4878793963
 23
213.2190094999
 33
0.0
  0
LINE
  5
337
330
332
100
AcDbEntity
  8
RIQUADRO
100
AcDbLine
 10
44.4837402115
 20
203.4170094999
 30
0.0
 11
57.9958793963
 21
203.4170094999
 31
0.0
  0
LINE
  5
338
330
332
100
AcDbEntity
  8
RIQUADRO
100
AcDbLine
 10
44.4837402115
 20
209.9170094999
 30
0.0
 11
57.9958793963
 21
209.9170094999
 31
0.0
  0
LINE
  5
339
330
332
100
AcDbEntity
  8
RIQUADRO
100
AcDbLine
 10
56.9958793963
 20
203.4170094999
 30
0.0
 11
56.9958793963
 21
197.0670094999
 31
0.0
  0
LINE
  5
33A
330
332
100
AcDbEntity
  8
RIQUADRO
100
AcDbLine
 10
56.9958793963
 20
203.4170094999
 30
0.0
 11
56.9958793963
 21
209.9170094999
 31
0.0
  0
LINE
  5
33B
330
332
100
AcDbEntity
  8
RIQUADRO
100
AcDbLine
 10
56.9958793963
 20
209.9170094999
 30
0.0
 11
56.9958793963
 21
226.2035704936
 31
0.0
  0
MTEXT
  5
33C
330
332
100
AcDbEntity
  8
RIQUADRO
100
AcDbMText
 10
52.4841423071
 20
211.873743103
 30
0.0
 40
3.5
 41
0.0
 71
     1
 72
     1
  1
%%c
  7
SLDTEXTSTYLE1
 11
-6.156016597943509E-15
 21
1.0
 31
0.0
 73
     1
 44
1.0
  0
MTEXT
  5
33D
330
332
100
AcDbEntity
  8
RIQUADRO
100
AcDbMText
 10
52.4306701305
 20
217.1521805014
 30
0.0
 40
3.5
 41
0.0
 71
     1
 72
     1
  1
6.50
  7
SLDTEXTSTYLE1
 11
-6.156016597943509E-15
 21
1.0
 31
0.0
 73
     1
 44
1.0
  0
ENDBLK
  5
334
330
332
100
AcDbEntity
  8
0
100
AcDbBlockEnd
  0
ENDSEC
  0
SECTION
  2
ENTITIES
  0
HATCH
  5
7D
330
1F
100
AcDbEntity
  8
CARTIGLIO
100
AcDbHatch
 10
0.0
 20
0.0
 30
0.0
210
0.0
220
0.0
230
1.0
  2
SOLID
 70
     1
 71
     0
 91
        5
 92
        0
 93
        6
 72
     1
 10
41.29527346265331
 20
36.88968414322763
 11
41.29527346265331
 21
28.70591041785658
 72
     4
 94
        3
 73
     1
 74
     0
 95
        8
 96
        4
 40
3.0
 40
3.0
 40
3.0
 40
3.0
 40
4.0
 40
4.0
 40
4.0
 40
4.0
 10
41.29527346265331
 20
28.70591041785658
 42
1.0
 10
43.3019791404557
 20
28.70591041785658
 42
1.0
 10
44.9680079384604
 20
30.15148755576019
 42
1.0
 10
45.31694012831459
 20
32.05744033950397
 42
1.0
 72
     1
 10
45.31694012831459
 20
32.05744033950397
 11
48.30091173604843
 21
32.05744033950397
 72
     1
 10
48.30091173604843
 20
32.05744033950397
 11
48.30091173604843
 21
33.51084968667489
 72
     1
 10
48.30091173604843
 20
33.51084968667489
 11
45.3206446825536
 21
33.51413114012458
 72
     4
 94
        3
 73
     1
 74
     0
 95
        8
 96
        4
 40
1.0
 40
1.0
 40
1.0
 40
1.0
 40
2.0
 40
2.0
 40
2.0
 40
2.0
 10
45.3206446825536
 20
33.51413114012458
 42
1.0
 10
44.98134368776533
 20
35.43172404023925
 42
1.0
 10
43.3103410331538
 20
36.88968414322763
 42
1.0
 10
41.29527346265331
 20
36.88968414322763
 42
1.0
 97
        0
 92
        0
 93
        3
 72
     1
 10
42.82213116897735
 20
32.05744033950397
 11
45.03457687256649
 21
32.05744033950397
 72
     4
 94
        3
 73
     1
 74
     0
 95
        8
 96
        4
 40
2.0
 40
2.0
 40
2.0
 40
2.0
 40
3.0
 40
3.0
 40
3.0
 40
3.0
 10
45.03457687256649
 20
32.05744033950397
 42
1.0
 10
44.86958371363151
 20
31.22008834996731
 42
1.0
 10
44.4295282098963
 20
30.48263982313346
 42
1.0
 10
43.81304936636147
 20
29.94035057257729
 42
1.0
 72
     4
 94
        3
 73
     1
 74
     0
 95
        8
 96
        4
 40
0.0
 40
0.0
 40
0.0
 40
0.0
 40
1.0
 40
1.0
 40
1.0
 40
1.0
 10
43.81304936636147
 20
29.94035057257729
 42
1.0
 10
43.30780081352959
 20
30.53174858268334
 42
1.0
 10
42.95548058758415
 20
31.25670756179083
 42
1.0
 10
42.82213116897735
 20
32.05744033950397
 42
1.0
 97
        0
 92
        0
 93
        3
 72
     4
 94
        3
 73
     1
 74
     0
 95
        8
 96
        4
 40
1.0
 40
1.0
 40
1.0
 40
1.0
 40
2.0
 40
2.0
 40
2.0
 40
2.0
 10
41.57562618220809
 20
31.02292015238475
 42
1.0
 10
41.78729284882183
 20
30.35479555945281
 42
1.0
 10
42.11357784222984
 20
29.73884478446034
 42
1.0
 10
42.53362972200765
 20
29.19962382207072
 42
1.0
 72
     4
 94
        3
 73
     1
 74
     0
 95
        8
 96
        4
 40
2.0
 40
2.0
 40
2.0
 40
2.0
 40
3.0
 40
3.0
 40
3.0
 40
3.0
 10
42.53362972200765
 20
29.19962382207072
 42
1.0
 10
42.22935888875038
 20
29.0950597911317
 42
1.0
 10
41.90910711881092
 20
29.02478630278663
 42
1.0
 10
41.57562618220809
 20
29.00034012054167
 42
1.0
 72
     1
 10
41.57562618220809
 20
29.00034012054167
 11
41.57562618220809
 21
31.02292015238475
 97
        0
 92
        0
 93
        3
 72
     4
 94
        3
 73
     1
 74
     0
 95
        8
 96
        4
 40
0.0
 40
0.0
 40
0.0
 40
0.0
 40
1.0
 40
1.0
 40
1.0
 40
1.0
 10
41.57562618220809
 20
36.59515108767788
 42
1.0
 10
41.91778552965681
 20
36.57017522200218
 42
1.0
 10
42.24618602701117
 20
36.49746648178598
 42
1.0
 10
42.5574428679571
 20
36.38824834216486
 42
1.0
 72
     4
 94
        3
 73
     1
 74
     0
 95
        8
 96
        4
 40
1.0
 40
1.0
 40
1.0
 40
1.0
 40
2.0
 40
2.0
 40
2.0
 40
2.0
 10
42.5574428679571
 20
36.38824834216486
 42
1.0
 10
42.12617074282086
 20
35.84246447287584
 42
1.0
 10
41.79120895345546
 20
35.22069363969796
 42
1.0
 10
41.57562618220809
 20
34.54420715406792
 42
1.0
 72
     1
 10
41.57562618220809
 20
34.54420715406792
 11
41.57562618220809
 21
36.59515108767788
 97
        0
 92
        0
 93
        3
 72
     4
 94
        3
 73
     1
 74
     0
 95
        8
 96
        4
 40
1.0
 40
1.0
 40
1.0
 40
1.0
 40
2.0
 40
2.0
 40
2.0
 40
2.0
 10
42.8247779712431
 20
33.51677632750183
 42
1.0
 10
42.96193691184197
 20
34.32174657266185
 42
1.0
 10
43.32018377861441
 20
35.04860789043268
 42
1.0
 10
43.83199362345717
 20
35.63968938239104
 42
1.0
 72
     4
 94
        3
 73
     1
 74
     0
 95
        8
 96
        4
 40
2.0
 40
2.0
 40
2.0
 40
2.0
 40
3.0
 40
3.0
 40
3.0
 40
3.0
 10
43.83199362345717
 20
35.63968938239104
 42
1.0
 10
44.44455636235845
 20
35.09379893046047
 42
1.0
 10
44.87889677566121
 20
34.35296559731233
 42
1.0
 10
45.03859955984169
 20
33.51434430540773
 42
1.0
 72
     1
 10
45.03859955984169
 20
33.51434430540772
 11
42.8247779712431
 21
33.51677632750182
 97
        0
 75
     0
 76
     1
 98
        1
 10
0.0
 20
0.0
  0
HATCH
  5
7E
330
1F
100
AcDbEntity
  8
CARTIGLIO
100
AcDbHatch
 10
0.0
 20
0.0
 30
0.0
210
0.0
220
0.0
230
1.0
  2
SOLID
 70
     1
 71
     0
 91
        1
 92
        0
 93
        3
 72
     1
 10
36.92296928487271
 20
32.86304362095957
 11
41.00443204223451
 21
34.50113161798657
 72
     1
 10
41.00443204223451
 20
34.50113161798657
 11
41.00443204223451
 21
35.83780390463967
 72
     1
 10
41.00443204223451
 20
35.83780390463967
 11
36.92296928487271
 21
32.86304362095957
 97
        0
 75
     0
 76
     1
 98
        1
 10
0.0
 20
0.0
  0
HATCH
  5
7F
330
1F
100
AcDbEntity
  8
CARTIGLIO
100
AcDbHatch
 10
0.0
 20
0.0
 30
0.0
210
0.0
220
0.0
230
1.0
  2
SOLID
 70
     1
 71
     0
 91
        1
 92
        0
 93
        3
 72
     1
 10
41.00432707448154
 20
31.16399358272873
 11
36.92296928487271
 21
32.86304362095957
 72
     1
 10
36.92296928487271
 20
32.86304362095957
 11
41.00432707448154
 21
29.81387896412907
 72
     1
 10
41.00432707448154
 20
29.81387896412907
 11
41.00432707448154
 21
31.16399358272873
 97
        0
 75
     0
 76
     1
 98
        1
 10
0.0
 20
0.0
  0
HATCH
  5
80
330
1F
100
AcDbEntity
  8
CARTIGLIO
100
AcDbHatch
 10
0.0
 20
0.0
 30
0.0
210
0.0
220
0.0
230
1.0
  2
SOLID
 70
     1
 71
     0
 91
        1
 92
        0
 93
        3
 72
     1
 10
41.00432707448154
 20
32.28370882801356
 11
41.00432707448154
 21
33.40744837546214
 72
     1
 10
41.00432707448154
 20
33.40744837546214
 11
36.93090807678154
 21
32.86304362095957
 72
     1
 10
36.93090807678154
 20
32.86304362095957
 11
41.00432707448154
 21
32.28370882801356
 97
        0
 75
     0
 76
     1
 98
        1
 10
0.0
 20
0.0
  0
HATCH
  5
81
330
1F
100
AcDbEntity
  8
CARTIGLIO
100
AcDbHatch
 10
0.0
 20
0.0
 30
0.0
210
0.0
220
0.0
230
1.0
  2
SOLID
 70
     1
 71
     0
 91
        1
 92
        0
 93
        6
 72
     4
 94
        3
 73
     1
 74
     0
 95
        8
 96
        4
 40
2.0
 40
2.0
 40
2.0
 40
2.0
 40
3.0
 40
3.0
 40
3.0
 40
3.0
 10
44.51682908267724
 20
37.9990414936176
 42
1.0
 10
44.98768212516205
 20
37.70630742386658
 42
1.0
 10
45.41567118196014
 20
37.35144859318542
 42
1.0
 10
45.79032208620407
 20
36.94663480137584
 42
1.0
 72
     4
 94
        3
 73
     1
 74
     0
 95
        8
 96
        4
 40
3.0
 40
3.0
 40
3.0
 40
3.0
 40
4.0
 40
4.0
 40
4.0
 40
4.0
 10
45.79032208620407
 20
36.94663480137584
 42
1.0
 10
46.21503130444094
 20
37.08252443960686
 42
1.0
 10
46.66683350718854
 20
37.15787836720028
 42
1.0
 10
47.13662718281165
 20
37.15724210112789
 42
1.0
 72
     1
 10
47.13662718281166
 20
37.15724210112789
 11
48.30407530263698
 21
37.15491343189831
 72
     1
 10
48.30407530263698
 20
37.15491343189831
 11
48.30672049001423
 21
38.61414606703153
 72
     1
 10
48.30672049001423
 20
38.61414606703153
 11
47.13927398507742
 21
38.61647473626109
 72
     4
 94
        3
 73
     1
 74
     0
 95
        8
 96
        4
 40
1.0
 40
1.0
 40
1.0
 40
1.0
 40
2.0
 40
2.0
 40
2.0
 40
2.0
 10
47.13927398507742
 20
38.61647473626109
 42
1.0
 10
46.19640356549299
 20
38.61816713941823
 42
1.0
 10
45.30592174401963
 20
38.39475377379212
 42
1.0
 10
44.51682908267724
 20
37.9990414936176
 42
1.0
 97
        0
 75
     0
 76
     1
 98
        1
 10
0.0
 20
0.0
  0
HATCH
  5
82
330
1F
100
AcDbEntity
  8
CARTIGLIO
100
AcDbHatch
 10
0.0
 20
0.0
 30
0.0
210
0.0
220
0.0
230
1.0
  2
SOLID
 70
     1
 71
     0
 91
        1
 92
        0
 93
        6
 72
     1
 10
48.28785051778994
 20
28.39908806075556
 11
47.12029743021157
 21
28.40131014734353
 72
     4
 94
        3
 73
     1
 74
     0
 95
        8
 96
        4
 40
5.0
 40
5.0
 40
5.0
 40
5.0
 40
6.0
 40
6.0
 40
6.0
 40
6.0
 10
47.12029743021157
 20
28.40131014734354
 42
1.0
 10
46.65071369009458
 20
28.40215634892213
 42
1.0
 10
46.19912303774166
 20
28.47920267967272
 42
1.0
 10
45.77505008557718
 20
28.61647143269017
 42
1.0
 72
     4
 94
        3
 73
     1
 74
     0
 95
        8
 96
        4
 40
0.0
 40
0.0
 40
0.0
 40
0.0
 40
1.0
 40
1.0
 40
1.0
 40
1.0
 10
45.77505008557718
 20
28.61647143269017
 42
1.0
 10
45.39881174592922
 20
28.21356320932081
 42
1.0
 10
44.96944518923316
 20
27.86018361651366
 42
1.0
 10
44.49753439477514
 20
27.56893201441363
 42
1.0
 72
     4
 94
        3
 73
     1
 74
     0
 95
        8
 96
        4
 40
1.0
 40
1.0
 40
1.0
 40
1.0
 40
2.0
 40
2.0
 40
2.0
 40
2.0
 10
44.49753439477514
 20
27.56893201441363
 42
1.0
 10
45.28525278599669
 20
27.17057454686184
 42
1.0
 10
46.17488840589144
 20
26.94366979227977
 42
1.0
 10
47.11765062794582
 20
26.94176422383959
 42
1.0
 72
     1
 10
47.11765062794582
 20
26.94176422383959
 11
48.28520371552418
 21
26.93964549011618
 72
     1
 10
48.28520371552418
 20
26.93964549011618
 11
48.28785051778994
 21
28.39908806075556
 97
        0
 75
     0
 76
     1
 98
        1
 10
0.0
 20
0.0
  0
HATCH
  5
83
330
1F
100
AcDbEntity
  8
CARTIGLIO
100
AcDbHatch
 10
0.0
 20
0.0
 30
0.0
210
0.0
220
0.0
230
1.0
  2
SOLID
 70
     1
 71
     0
 91
        1
 92
        0
 93
        4
 72
     1
 10
54.47391510924066
 20
28.39871986617556
 11
48.78844334705119
 21
28.39871986617556
 72
     1
 10
48.78844334705119
 20
28.39871986617556
 11
48.78844334705119
 21
26.93959704346094
 72
     1
 10
48.78844334705119
 20
26.93959704346094
 11
54.47391510924066
 21
26.93959704346094
 72
     1
 10
54.47391510924066
 20
26.93959704346094
 11
54.47391510924066
 21
28.39871986617556
 97
        0
 75
     0
 76
     1
 98
        1
 10
0.0
 20
0.0
  0
HATCH
  5
84
330
1F
100
AcDbEntity
  8
CARTIGLIO
100
AcDbHatch
 10
0.0
 20
0.0
 30
0.0
210
0.0
220
0.0
230
1.0
  2
SOLID
 70
     1
 71
     0
 91
        1
 92
        0
 93
        4
 72
     1
 10
54.47258121133247
 20
33.51077540180347
 11
48.79345919075929
 21
33.51077540180347
 72
     1
 10
48.79345919075929
 20
33.51077540180347
 11
48.79345919075929
 21
32.05736605463264
 72
     1
 10
48.79345919075929
 20
32.05736605463264
 11
54.47258121133247
 21
32.05736605463264
 72
     1
 10
54.47258121133247
 20
32.05736605463264
 11
54.47258121133247
 21
33.51077540180347
 97
        0
 75
     0
 76
     1
 98
        1
 10
0.0
 20
0.0
  0
HATCH
  5
85
330
1F
100
AcDbEntity
  8
CARTIGLIO
100
AcDbHatch
 10
0.0
 20
0.0
 30
0.0
210
0.0
220
0.0
230
1.0
  2
SOLID
 70
     1
 71
     0
 91
        1
 92
        0
 93
        4
 72
     1
 10
54.47395709634191
 20
38.61352917962122
 11
48.7884853341524
 21
38.61352917962122
 72
     1
 10
48.7884853341524
 20
38.61352917962122
 11
48.7884853341524
 21
37.15440635690656
 72
     1
 10
48.7884853341524
 20
37.15440635690656
 11
54.47395709634191
 21
37.15440635690656
 72
     1
 10
54.47395709634191
 20
37.15440635690656
 11
54.47395709634191
 21
38.61352917962122
 97
        0
 75
     0
 76
     1
 98
        1
 10
0.0
 20
0.0
  0
HATCH
  5
86
330
1F
100
AcDbEntity
  8
CARTIGLIO
100
AcDbHatch
 10
0.0
 20
0.0
 30
0.0
210
0.0
220
0.0
230
1.0
  2
SOLID
 70
     1
 71
     0
 91
        1
 92
        0
 93
       10
 72
     4
 94
        3
 73
     1
 74
     0
 95
        8
 96
        4
 40
1.0
 40
1.0
 40
1.0
 40
1.0
 40
2.0
 40
2.0
 40
2.0
 40
2.0
 10
45.54288402423385
 20
31.76074656312963
 42
1.0
 10
45.07806420521754
 20
29.8370170866819
 42
1.0
 10
43.34874631166797
 20
28.40826708703909
 42
1.0
 10
41.2831973263852
 20
28.41207499414261
 42
1.0
 72
     4
 94
        3
 73
     1
 74
     0
 95
        8
 96
        4
 40
2.0
 40
2.0
 40
2.0
 40
2.0
 40
3.0
 40
3.0
 40
3.0
 40
3.0
 10
41.2831973263852
 20
28.41207499414261
 42
1.0
 10
38.8656478630817
 20
28.41641581445401
 42
1.0
 10
36.90921204966697
 20
30.38025912145817
 42
1.0
 10
36.91376280548454
 20
32.79833826819253
 42
1.0
 72
     4
 94
        3
 73
     1
 74
     0
 95
        8
 96
        4
 40
3.0
 40
3.0
 40
3.0
 40
3.0
 40
4.0
 40
4.0
 40
4.0
 40
4.0
 10
36.91376280548454
 20
32.79833826819253
 42
1.0
 10
36.91810201090745
 20
35.21620747942072
 42
1.0
 10
38.88184035015858
 20
37.17221857715764
 42
1.0
 10
41.29960136385667
 20
37.16787775684624
 42
1.0
 72
     4
 94
        3
 73
     1
 74
     0
 95
        8
 96
        4
 40
4.0
 40
4.0
 40
4.0
 40
4.0
 40
5.0
 40
5.0
 40
5.0
 40
5.0
 10
41.29960136385667
 20
37.16787775684624
 42
1.0
 10
43.36504538138637
 20
37.16396326710111
 42
1.0
 10
45.08917625304599
 20
35.72886352584207
 42
1.0
 10
45.54669354622593
 20
33.80375493460785
 42
1.0
 72
     1
 10
45.54669354622593
 20
33.80375493460785
 11
47.03989536113985
 21
33.80121632987215
 72
     4
 94
        3
 73
     1
 74
     0
 95
        8
 96
        4
 40
6.0
 40
6.0
 40
6.0
 40
6.0
 40
7.0
 40
7.0
 40
7.0
 40
7.0
 10
47.03989536113985
 20
33.80121632987215
 42
1.0
 10
46.56142327467095
 20
36.53795819625338
 42
1.0
 10
44.1774215052474
 20
38.62192337008949
 42
1.0
 10
41.30224816612244
 20
38.62711039197947
 42
1.0
 72
     4
 94
        3
 73
     1
 74
     0
 95
        8
 96
        4
 40
7.0
 40
7.0
 40
7.0
 40
7.0
 40
8.0
 40
8.0
 40
8.0
 40
8.0
 10
41.30224816612244
 20
38.62711039197947
 42
1.0
 10
38.0784591552911
 20
38.63314038567101
 42
1.0
 10
35.45982538977139
 20
36.02445594825351
 42
1.0
 10
35.45400452414172
 20
32.80098345556981
 42
1.0
 72
     4
 94
        3
 73
     1
 74
     0
 95
        8
 96
        4
 40
8.0
 40
8.0
 40
8.0
 40
8.0
 40
9.0
 40
9.0
 40
9.0
 40
9.0
 10
35.45400452414172
 20
32.80098345556981
 42
1.0
 10
35.44797210811743
 20
29.57677134394909
 42
1.0
 10
38.05676312817653
 20
26.95845571146566
 42
1.0
 10
41.28055213900792
 20
26.95263565328015
 42
1.0
 72
     4
 94
        3
 73
     1
 74
     0
 95
        8
 96
        4
 40
9.0
 40
9.0
 40
9.0
 40
9.0
 40
10.0
 40
10.0
 40
10.0
 40
10.0
 10
41.28055213900792
 20
26.95263565328015
 42
1.0
 10
44.15593702852753
 20
26.94723546610703
 42
1.0
 10
46.54745287418208
 20
29.02220571094971
 42
1.0
 10
47.03598087139475
 20
31.75799802288781
 42
1.0
 72
     1
 10
47.03598087139475
 20
31.75799802288781
 11
45.54288402423385
 21
31.76074656312963
 97
        0
 75
     0
 76
     1
 98
        1
 10
0.0
 20
0.0
  0
HATCH
  5
87
330
1F
100
AcDbEntity
  8
CARTIGLIO
100
AcDbHatch
 10
0.0
 20
0.0
 30
0.0
210
0.0
220
0.0
230
1.0
  2
SOLID
 70
     1
 71
     0
 91
        2
 92
        0
 93
        9
 72
     4
 94
        3
 73
     1
 74
     0
 95
        8
 96
        4
 40
7.0
 40
7.0
 40
7.0
 40
7.0
 40
8.0
 40
8.0
 40
8.0
 40
8.0
 10
55.25746224344419
 20
38.62233678154772
 42
1.0
 10
55.16623396181009
 20
38.67303136161318
 42
1.0
 10
55.09511104210947
 20
38.7441510515368
 42
1.0
 10
55.04420652653786
 20
38.83580243396015
 42
1.0
 72
     4
 94
        3
 73
     1
 74
     0
 95
       11
 96
        7
 40
8.0
 40
8.0
 40
8.0
 40
8.0
 40
9.0
 40
9.0
 40
9.0
 40
10.0
 40
10.0
 40
10.0
 40
10.0
 10
55.04420652653786
 20
38.83580243396014
 42
1.0
 10
54.99330201096631
 20
38.92734723374196
 42
1.0
 10
54.96789981472431
 20
39.02270317040428
 42
1.0
 10
54.96789981472431
 20
39.12197682658885
 42
1.0
 10
54.9678998147243
 20
39.22230661985803
 42
1.0
 10
54.99372511175559
 20
39.31861211096349
 42
1.0
 10
55.04547582890573
 20
39.41089975945926
 42
1.0
 72
     4
 94
        3
 73
     1
 74
     0
 95
        8
 96
        4
 40
10.0
 40
10.0
 40
10.0
 40
10.0
 40
11.0
 40
11.0
 40
11.0
 40
11.0
 10
55.04547582890574
 20
39.41089975945927
 42
1.0
 10
55.09701661054978
 20
39.50329399059646
 42
1.0
 10
55.168985731829
 20
39.57420051523694
 42
1.0
 10
55.26106021504157
 20
39.62394231108249
 42
1.0
 72
     4
 94
        3
 73
     1
 74
     0
 95
        8
 96
        4
 40
11.0
 40
11.0
 40
11.0
 40
11.0
 40
12.0
 40
12.0
 40
12.0
 40
12.0
 10
55.26106021504157
 20
39.62394231108249
 42
1.0
 10
55.35324128089584
 20
39.67357752428622
 42
1.0
 10
55.44753785069651
 20
39.6983434544558
 42
1.0
 10
55.54426967236829
 20
39.6983434544558
 42
1.0
 72
     4
 94
        3
 73
     1
 74
     0
 95
        8
 96
        4
 40
0.0
 40
0.0
 40
0.0
 40
0.0
 40
1.0
 40
1.0
 40
1.0
 40
1.0
 10
55.54426967236829
 20
39.6983434544558
 42
1.0
 10
55.64100149404006
 20
39.6983434544558
 42
1.0
 10
55.73529806384068
 20
39.67357752428622
 42
1.0
 10
55.82747912969494
 20
39.62394231108249
 42
1.0
 72
     4
 94
        3
 73
     1
 74
     0
 95
        8
 96
        4
 40
1.0
 40
1.0
 40
1.0
 40
1.0
 40
2.0
 40
2.0
 40
2.0
 40
2.0
 10
55.82747912969494
 20
39.62394231108249
 42
1.0
 10
55.91966019554918
 20
39.57420051523716
 42
1.0
 10
55.99130956890365
 20
39.50329399059668
 42
1.0
 10
56.04274376790608
 20
39.4108997594593
 42
1.0
 72
     4
 94
        3
 73
     1
 74
     0
 95
       11
 96
        7
 40
2.0
 40
2.0
 40
2.0
 40
2.0
 40
3.0
 40
3.0
 40
3.0
 40
4.0
 40
4.0
 40
4.0
 40
4.0
 10
56.04274376790608
 20
39.4108997594593
 42
1.0
 10
56.09407461404398
 20
39.31861211096349
 42
1.0
 10
56.11989668129825
 20
39.22230661985804
 42
1.0
 10
56.11989668129825
 20
39.12197682658886
 42
1.0
 10
56.11989668129825
 20
39.02270317040432
 42
1.0
 10
56.09449771483322
 20
38.92734723374197
 42
1.0
 10
56.04380313476779
 20
38.83580243396015
 42
1.0
 72
     4
 94
        3
 73
     1
 74
     0
 95
        8
 96
        4
 40
4.0
 40
4.0
 40
4.0
 40
4.0
 40
5.0
 40
5.0
 40
5.0
 40
5.0
 10
56.04380313476779
 20
38.83580243396015
 42
1.0
 10
55.9932151373439
 20
38.7441510515368
 42
1.0
 10
55.92230538292642
 20
38.67303136161318
 42
1.0
 10
55.83097051865075
 20
38.62233678154772
 42
1.0
 72
     4
 94
        3
 73
     1
 74
     0
 95
       11
 96
        7
 40
5.0
 40
5.0
 40
5.0
 40
5.0
 40
6.0
 40
6.0
 40
6.0
 40
7.0
 40
7.0
 40
7.0
 40
7.0
 10
55.83097051865075
 20
38.62233678154772
 42
1.0
 10
55.7396388841521
 20
38.57174878412384
 42
1.0
 10
55.64385984670046
 20
38.54645317052338
 42
1.0
 10
55.54426967236829
 20
38.54645317052338
 42
1.0
 10
55.44457291539449
 20
38.54645317052338
 42
1.0
 10
55.34900704322599
 20
38.57174878412384
 42
1.0
 10
55.25746224344419
 20
38.62233678154772
 42
1.0
 97
        0
 92
        0
 93
        9
 72
     4
 94
        3
 73
     1
 74
     0
 95
        8
 96
        4
 40
0.0
 40
0.0
 40
0.0
 40
0.0
 40
1.0
 40
1.0
 40
1.0
 40
1.0
 10
55.54426967236829
 20
39.60298751779345
 42
1.0
 10
55.46341220473711
 20
39.60298751779345
 42
1.0
 10
55.38456688818781
 20
39.58224588978759
 42
1.0
 10
55.30783707558493
 20
39.54065282135721
 42
1.0
 72
     4
 94
        3
 73
     1
 74
     0
 95
        8
 96
        4
 40
1.0
 40
1.0
 40
1.0
 40
1.0
 40
2.0
 40
2.0
 40
2.0
 40
2.0
 10
55.30783707558493
 20
39.54065282135721
 42
1.0
 10
55.23142701090676
 20
39.49916633556841
 42
1.0
 10
55.17141775392307
 20
39.43989992729871
 42
1.0
 10
55.12823886497715
 20
39.36285359654812
 42
1.0
 72
     4
 94
        3
 73
     1
 74
     0
 95
       11
 96
        7
 40
2.0
 40
2.0
 40
2.0
 40
2.0
 40
3.0
 40
3.0
 40
3.0
 40
4.0
 40
4.0
 40
4.0
 40
4.0
 10
55.12823886497715
 20
39.36285359654812
 42
1.0
 10
55.08495339338968
 20
39.28580403602053
 42
1.0
 10
55.06336233402821
 20
39.20547948159725
 42
1.0
 10
55.06336233402821
 20
39.12197682658886
 42
1.0
 10
55.06336233402821
 20
39.03900062523424
 42
1.0
 10
55.08463364546493
 20
38.95952227238952
 42
1.0
 10
55.12707291547387
 20
38.88342549608203
 42
1.0
 72
     4
 94
        3
 73
     1
 74
     0
 95
        8
 96
        4
 40
4.0
 40
4.0
 40
4.0
 40
4.0
 40
5.0
 40
5.0
 40
5.0
 40
5.0
 10
55.12707291547387
 20
38.88342549608203
 42
1.0
 10
55.16951218548281
 20
38.8073319495516
 42
1.0
 10
55.22899175903562
 20
38.74817212392351
 42
1.0
 10
55.30529847084923
 20
38.70551968863143
 42
1.0
 72
     4
 94
        3
 73
     1
 74
     0
 95
       10
 96
        6
 40
5.0
 40
5.0
 40
5.0
 40
5.0
 40
6.0
 40
6.0
 40
7.0
 40
7.0
 40
7.0
 40
7.0
 10
55.30529847084923
 20
38.70551968863143
 42
1.0
 10
55.38160195288581
 20
38.66308364839951
 42
1.0
 10
55.46129670079068
 20
38.64180910718573
 42
1.0
 10
55.62724264394581
 20
38.64180910718573
 42
1.0
 10
55.70683080920914
 20
38.66308364839951
 42
1.0
 10
55.78313429124572
 20
38.70551968863143
 42
1.0
 72
     4
 94
        3
 73
     1
 74
     0
 95
        8
 96
        4
 40
7.0
 40
7.0
 40
7.0
 40
7.0
 40
8.0
 40
8.0
 40
8.0
 40
8.0
 10
55.78313429124572
 20
38.70551968863143
 42
1.0
 10
55.85944100305932
 20
38.74817212392351
 42
1.0
 10
55.91881399397059
 20
38.8073319495516
 42
1.0
 10
55.96093351605478
 20
38.88342549608203
 42
1.0
 72
     4
 94
        3
 73
     1
 74
     0
 95
       11
 96
        7
 40
8.0
 40
8.0
 40
8.0
 40
8.0
 40
9.0
 40
9.0
 40
9.0
 40
10.0
 40
10.0
 40
10.0
 40
10.0
 10
55.96093351605478
 20
38.88342549608203
 42
1.0
 10
56.00326943319915
 20
38.95952227238955
 42
1.0
 10
56.02443416199434
 20
39.0390006252343
 42
1.0
 10
56.02443416199434
 20
39.12197682658886
 42
1.0
 10
56.02443416199434
 20
39.20547948159725
 42
1.0
 10
56.0028463324099
 20
39.28580403602056
 42
1.0
 10
55.95987737897015
 20
39.36285359654812
 42
1.0
 72
     4
 94
        3
 73
     1
 74
     0
 95
        8
 96
        4
 40
10.0
 40
10.0
 40
10.0
 40
10.0
 40
11.0
 40
11.0
 40
11.0
 40
11.0
 10
55.95987737897015
 20
39.36285359654812
 42
1.0
 10
55.91690842553034
 20
39.43989992729874
 42
1.0
 10
55.8569023983237
 20
39.49916633556845
 42
1.0
 10
55.78006600307917
 20
39.54065282135721
 42
1.0
 72
     4
 94
        3
 73
     1
 74
     0
 95
        8
 96
        4
 40
11.0
 40
11.0
 40
11.0
 40
11.0
 40
12.0
 40
12.0
 40
12.0
 40
12.0
 10
55.78006600307917
 20
39.54065282135721
 42
1.0
 10
55.70322960783473
 20
39.58224588978759
 42
1.0
 10
55.62470403921014
 20
39.60298751779345
 42
1.0
 10
55.54426967236829
 20
39.60298751779345
 42
1.0
 97
        0
 75
     0
 76
     1
 98
        1
 10
0.0
 20
0.0
  0
HATCH
  5
88
330
1F
100
AcDbEntity
  8
CARTIGLIO
100
AcDbHatch
 10
0.0
 20
0.0
 30
0.0
210
0.0
220
0.0
230
1.0
  2
SOLID
 70
     1
 71
     0
 91
        2
 92
        0
 93
       17
 72
     1
 10
55.31577586749376
 20
39.42349588982727
 11
55.52871183647532
 21
39.42349588982727
 72
     4
 94
        3
 73
     1
 74
     0
 95
        8
 96
        4
 40
2.0
 40
2.0
 40
2.0
 40
2.0
 40
3.0
 40
3.0
 40
3.0
 40
3.0
 10
55.52871183647532
 20
39.42349588982727
 42
1.0
 10
55.60163051219767
 20
39.42349588982727
 42
1.0
 10
55.65423066070344
 20
39.41777918450642
 42
1.0
 10
55.6868255703632
 20
39.40645558628334
 42
1.0
 72
     4
 94
        3
 73
     1
 74
     0
 95
        8
 96
        4
 40
3.0
 40
3.0
 40
3.0
 40
3.0
 40
4.0
 40
4.0
 40
4.0
 40
4.0
 10
55.6868255703632
 20
39.40645558628334
 42
1.0
 10
55.71942370980008
 20
39.39491882277713
 42
1.0
 10
55.74545894233749
 20
39.37491681370823
 42
1.0
 10
55.76461474982784
 20
39.34644632929965
 42
1.0
 72
     4
 94
        3
 73
     1
 74
     0
 95
        8
 96
        4
 40
4.0
 40
4.0
 40
4.0
 40
4.0
 40
5.0
 40
5.0
 40
5.0
 40
5.0
 10
55.76461474982784
 20
39.34644632929965
 42
1.0
 10
55.7839804928243
 20
39.31797907466808
 42
1.0
 10
55.79361168789025
 20
39.28760302181922
 42
1.0
 10
55.79361168789025
 20
39.25564437823187
 42
1.0
 72
     4
 94
        3
 73
     1
 74
     0
 95
        8
 96
        4
 40
5.0
 40
5.0
 40
5.0
 40
5.0
 40
6.0
 40
6.0
 40
6.0
 40
6.0
 10
55.79361168789025
 20
39.25564437823187
 42
1.0
 10
55.79361168789025
 20
39.21034675556251
 42
1.0
 10
55.77752739834349
 20
39.170765838214
 42
1.0
 10
55.74524577705437
 20
39.13721491455704
 42
1.0
 72
     4
 94
        3
 73
     1
 74
     0
 95
        8
 96
        4
 40
6.0
 40
6.0
 40
6.0
 40
6.0
 40
7.0
 40
7.0
 40
7.0
 40
7.0
 10
55.74524577705437
 20
39.13721491455704
 42
1.0
 10
55.71286080290064
 20
39.10377057354161
 42
1.0
 10
55.66999843210245
 20
39.08493451397604
 42
1.0
 10
55.61644872915362
 20
39.08080685894774
 42
1.0
 72
     4
 94
        3
 73
     1
 74
     0
 95
        8
 96
        4
 40
7.0
 40
7.0
 40
7.0
 40
7.0
 40
8.0
 40
8.0
 40
8.0
 40
8.0
 10
55.61644872915362
 20
39.08080685894774
 42
1.0
 10
55.63845965952733
 20
39.07159876467106
 42
1.0
 10
55.65602964650211
 20
39.06069826723729
 42
1.0
 10
55.66925881316548
 20
39.0478922013632
 42
1.0
 72
     4
 94
        3
 73
     1
 74
     0
 95
        8
 96
        4
 40
8.0
 40
8.0
 40
8.0
 40
8.0
 40
9.0
 40
9.0
 40
9.0
 40
9.0
 10
55.66925881316548
 20
39.0478922013632
 42
1.0
 10
55.69434126148277
 20
39.02354937198291
 42
1.0
 10
55.7247140845546
 20
38.98259256962497
 42
1.0
 10
55.76091019558886
 20
38.92501856451241
 42
1.0
 72
     1
 10
55.76091019558886
 20
38.92501856451241
 11
55.8363707058239
 21
38.8037339779542
 72
     1
 10
55.8363707058239
 20
38.8037339779542
 11
55.71434327055167
 21
38.8037339779542
 72
     1
 10
55.71434327055167
 20
38.8037339779542
 11
55.65920451731022
 21
38.90131200120453
 72
     4
 94
        3
 73
     1
 74
     0
 95
        8
 96
        4
 40
12.0
 40
12.0
 40
12.0
 40
12.0
 40
13.0
 40
13.0
 40
13.0
 40
13.0
 10
55.65920451731022
 20
38.90131200120453
 42
1.0
 10
55.61612898122887
 20
38.97825497909058
 42
1.0
 10
55.58120540233953
 20
39.02630114200176
 42
1.0
 10
55.55474706901282
 20
39.04567011477522
 42
1.0
 72
     4
 94
        3
 73
     1
 74
     0
 95
        8
 96
        4
 40
13.0
 40
13.0
 40
13.0
 40
13.0
 40
14.0
 40
14.0
 40
14.0
 40
14.0
 10
55.55474706901282
 20
39.04567011477522
 42
1.0
 10
55.53633088045946
 20
39.05985206565871
 42
1.0
 10
55.5096626116266
 20
39.06704800885352
 42
1.0
 10
55.47463245009565
 20
39.06704800885352
 42
1.0
 72
     1
 10
55.47463245009565
 20
39.06704800885352
 11
55.41578914261522
 21
39.06704800885352
 72
     1
 10
55.41578914261522
 20
39.06704800885352
 11
55.41578914261522
 21
38.8037339779542
 72
     1
 10
55.41578914261522
 20
38.8037339779542
 11
55.31577586749376
 21
38.8037339779542
 72
     1
 10
55.31577586749376
 20
38.8037339779542
 11
55.31577586749376
 21
39.42349588982727
 97
        0
 92
        0
 93
        8
 72
     1
 10
55.52945145541234
 20
39.33957013402953
 11
55.41578914261522
 21
39.33957013402953
 72
     1
 10
55.41578914261522
 20
39.33957013402953
 11
55.41578914261522
 21
39.15256281494381
 72
     1
 10
55.41578914261522
 20
39.15256281494381
 11
55.53707372917347
 21
39.15256281494381
 72
     4
 94
        3
 73
     1
 74
     0
 95
        8
 96
        4
 40
1.0
 40
1.0
 40
1.0
 40
1.0
 40
2.0
 40
2.0
 40
2.0
 40
2.0
 10
55.53707372917347
 20
39.15256281494381
 42
1.0
 10
55.59506760529826
 20
39.15256281494381
 42
1.0
 10
55.63475510528838
 20
39.16113464314802
 42
1.0
 10
55.65581648121893
 20
39.1783848821981
 42
1.0
 72
     4
 94
        3
 73
     1
 74
     0
 95
        8
 96
        4
 40
2.0
 40
2.0
 40
2.0
 40
2.0
 40
3.0
 40
3.0
 40
3.0
 40
3.0
 10
55.65581648121893
 20
39.1783848821981
 42
1.0
 10
55.67698443979114
 20
39.1958482865313
 42
1.0
 10
55.68756841907722
 20
39.21860206561903
 42
1.0
 10
55.68756841907722
 20
39.24717590289217
 42
1.0
 72
     4
 94
        3
 73
     1
 74
     0
 95
        8
 96
        4
 40
3.0
 40
3.0
 40
3.0
 40
3.0
 40
4.0
 40
4.0
 40
4.0
 40
4.0
 10
55.68756841907722
 20
39.24717590289217
 42
1.0
 10
55.68756841907722
 20
39.26537892616236
 42
1.0
 10
55.68248797982884
 20
39.28199612891697
 42
1.0
 10
55.67232710133203
 20
39.2963880153066
 42
1.0
 72
     4
 94
        3
 73
     1
 74
     0
 95
        8
 96
        4
 40
4.0
 40
4.0
 40
4.0
 40
4.0
 40
5.0
 40
5.0
 40
5.0
 40
5.0
 10
55.67232710133203
 20
39.2963880153066
 42
1.0
 10
55.66216622283524
 20
39.31099306697939
 42
1.0
 10
55.6479842719517
 20
39.32168362890706
 42
1.0
 10
55.62999441396469
 20
39.32887957210188
 42
1.0
 72
     4
 94
        3
 73
     1
 74
     0
 95
        8
 96
        4
 40
5.0
 40
5.0
 40
5.0
 40
5.0
 40
6.0
 40
6.0
 40
6.0
 40
6.0
 10
55.62999441396469
 20
39.32887957210188
 42
1.0
 10
55.61189797333605
 20
39.33596893265512
 42
1.0
 10
55.57845363232065
 20
39.33957013402953
 42
1.0
 10
55.52945145541234
 20
39.33957013402953
 42
1.0
 97
        0
 75
     0
 76
     1
 98
        1
 10
0.0
 20
0.0
  0
HATCH
  5
89
330
1F
100
AcDbEntity
  8
CARTIGLIO
100
AcDbHatch
 10
0.0
 20
0.0
 30
0.0
210
0.0
220
0.0
230
1.0
  2
SOLID
 70
     1
 71
     0
 91
        1
 92
        0
 93
        8
 72
     1
 10
33.93997306979816
 20
22.50396016814565
 11
34.38330921953881
 21
22.50396016814565
 72
     1
 10
34.38330921953881
 20
22.50396016814565
 11
34.38330921953881
 21
24.80424611727766
 72
     1
 10
34.38330921953881
 20
24.80424611727766
 11
35.21336029812767
 21
24.80424611727766
 72
     1
 10
35.21336029812767
 20
24.80424611727766
 11
35.21336029812767
 21
25.15995437931426
 72
     1
 10
35.21336029812767
 20
25.15995437931426
 11
33.11182755964954
 21
25.15995437931426
 72
     1
 10
33.11182755964954
 20
25.15995437931426
 11
33.11182755964954
 21
24.80424611727766
 72
     1
 10
33.11182755964954
 20
24.80424611727766
 11
33.93997306979816
 21
24.80424611727766
 72
     1
 10
33.93997306979816
 20
24.80424611727766
 11
33.93997306979816
 21
22.50396016814565
 97
        0
 75
     0
 76
     1
 98
        1
 10
0.0
 20
0.0
  0
HATCH
  5
8A
330
1F
100
AcDbEntity
  8
CARTIGLIO
100
AcDbHatch
 10
0.0
 20
0.0
 30
0.0
210
0.0
220
0.0
230
1.0
  2
SOLID
 70
     1
 71
     0
 91
        1
 92
        0
 93
        4
 72
     1
 10
46.76993767891569
 20
25.15995437931426
 11
46.55096848646556
 21
25.15995437931426
 72
     1
 10
46.55096848646556
 20
25.15995437931426
 11
46.55096848646556
 21
22.50396016814565
 72
     1
 10
46.55096848646556
 20
22.50396016814565
 11
46.76993767891569
 21
22.50396016814565
 72
     1
 10
46.76993767891569
 20
22.50396016814565
 11
46.76993767891569
 21
25.15995437931426
 97
        0
 75
     0
 76
     1
 98
        1
 10
0.0
 20
0.0
  0
HATCH
  5
8B
330
1F
100
AcDbEntity
  8
CARTIGLIO
100
AcDbHatch
 10
0.0
 20
0.0
 30
0.0
210
0.0
220
0.0
230
1.0
  2
SOLID
 70
     1
 71
     0
 91
        1
 92
        0
 93
       12
 72
     1
 10
51.83935369835957
 20
25.15995437931426
 11
50.16644547530777
 21
25.15995437931426
 72
     1
 10
50.16644547530777
 20
25.15995437931426
 11
50.16644547530777
 21
22.50396016814565
 72
     1
 10
50.16644547530777
 20
22.50396016814565
 11
51.84834862735314
 21
22.50396016814565
 72
     1
 10
51.84834862735314
 20
22.50396016814565
 11
51.84834862735314
 21
22.68810913457098
 72
     1
 10
51.84834862735314
 20
22.68810913457098
 11
50.38361568195921
 21
22.68810913457098
 72
     1
 10
50.38361568195921
 20
22.68810913457098
 11
50.38361568195921
 21
23.78994110451038
 72
     1
 10
50.38361568195921
 20
23.78994110451038
 11
51.6624006751291
 21
23.78994110451038
 72
     1
 10
51.6624006751291
 20
23.78994110451038
 11
51.6624006751291
 21
23.97599563937588
 72
     1
 10
51.6624006751291
 20
23.97599563937588
 11
50.38361568195921
 21
23.97599563937588
 72
     1
 10
50.38361568195921
 20
23.97599563937588
 11
50.38361568195921
 21
24.97389661467173
 72
     1
 10
50.38361568195921
 20
24.97389661467173
 11
51.83935369835957
 21
24.97389661467173
 72
     1
 10
51.83935369835957
 20
24.97389661467173
 11
51.83935369835957
 21
25.15995437931426
 97
        0
 75
     0
 76
     1
 98
        1
 10
0.0
 20
0.0
  0
HATCH
  5
8C
330
1F
100
AcDbEntity
  8
CARTIGLIO
100
AcDbHatch
 10
0.0
 20
0.0
 30
0.0
210
0.0
220
0.0
230
1.0
  2
SOLID
 70
     1
 71
     0
 91
        1
 92
        0
 93
       12
 72
     1
 10
53.99189672760663
 20
25.15995437931426
 11
52.31909508719638
 21
25.15995437931426
 72
     1
 10
52.31909508719638
 20
25.15995437931426
 11
52.31909508719638
 21
22.50396016814565
 72
     1
 10
52.31909508719638
 20
22.50396016814565
 11
54.00110482188329
 21
22.50396016814565
 72
     1
 10
54.00110482188329
 20
22.50396016814565
 11
54.00110482188329
 21
22.68810913457098
 72
     1
 10
54.00110482188329
 20
22.68810913457098
 11
52.53615871120624
 21
22.68810913457098
 72
     1
 10
52.53615871120624
 20
22.68810913457098
 11
52.53615871120624
 21
23.78994110451038
 72
     1
 10
52.53615871120624
 20
23.78994110451038
 11
53.81494370437613
 21
23.78994110451038
 72
     1
 10
53.81494370437613
 20
23.78994110451038
 11
53.81494370437613
 21
23.97599563937588
 72
     1
 10
53.81494370437613
 20
23.97599563937588
 11
52.53615871120624
 21
23.97599563937588
 72
     1
 10
52.53615871120624
 20
23.97599563937588
 11
52.53615871120624
 21
24.97389661467173
 72
     1
 10
52.53615871120624
 20
24.97389661467173
 11
53.99189672760663
 21
24.97389661467173
 72
     1
 10
53.99189672760663
 20
24.97389661467173
 11
53.99189672760663
 21
25.15995437931426
 97
        0
 75
     0
 76
     1
 98
        1
 10
0.0
 20
0.0
  0
HATCH
  5
8D
330
1F
100
AcDbEntity
  8
CARTIGLIO
100
AcDbHatch
 10
0.0
 20
0.0
 30
0.0
210
0.0
220
0.0
230
1.0
  2
SOLID
 70
     1
 71
     0
 91
        1
 92
        0
 93
        4
 72
     1
 10
57.16859235974701
 20
25.15995437931426
 11
56.94961993751986
 21
25.15995437931426
 72
     1
 10
56.94961993751986
 20
25.15995437931426
 11
56.94961993751986
 21
22.50396016814565
 72
     1
 10
56.94961993751986
 20
22.50396016814565
 11
57.16859235974701
 21
22.50396016814565
 72
     1
 10
57.16859235974701
 20
22.50396016814565
 11
57.16859235974701
 21
25.15995437931426
 97
        0
 75
     0
 76
     1
 98
        1
 10
0.0
 20
0.0
  0
HATCH
  5
8E
330
1F
100
AcDbEntity
  8
CARTIGLIO
100
AcDbHatch
 10
0.0
 20
0.0
 30
0.0
210
0.0
220
0.0
230
1.0
  2
SOLID
 70
     1
 71
     0
 91
        2
 92
        0
 93
       10
 72
     4
 94
        3
 73
     1
 74
     0
 95
        8
 96
        4
 40
7.0
 40
7.0
 40
7.0
 40
7.0
 40
8.0
 40
8.0
 40
8.0
 40
8.0
 10
28.21745939871798
 20
23.592986072211
 42
1.0
 10
28.21745939871798
 20
23.26701759695066
 42
1.0
 10
28.31567247687439
 20
22.99767357235982
 42
1.0
 10
28.51209903690933
 20
22.78473437360121
 42
1.0
 72
     4
 94
        3
 73
     1
 74
     0
 95
        8
 96
        4
 40
8.0
 40
8.0
 40
8.0
 40
8.0
 40
9.0
 40
9.0
 40
9.0
 40
9.0
 10
28.51209903690933
 20
22.78473437360121
 42
1.0
 10
28.70852600066637
 20
22.57201156990274
 42
1.0
 10
28.96845239919655
 20
22.46554197052342
 42
1.0
 10
29.29198481514148
 20
22.46554197052342
 42
1.0
 72
     4
 94
        3
 73
     1
 74
     0
 95
        8
 96
        4
 40
9.0
 40
9.0
 40
9.0
 40
9.0
 40
10.0
 40
10.0
 40
10.0
 40
10.0
 10
29.29198481514148
 20
22.46554197052342
 42
1.0
 10
29.62154964711068
 20
22.46554197052342
 42
1.0
 10
29.88697998940066
 20
22.5715884691135
 42
1.0
 10
30.08827503456732
 20
22.78388817202262
 42
1.0
 72
     4
 94
        3
 73
     1
 74
     0
 95
        8
 96
        4
 40
0.0
 40
0.0
 40
0.0
 40
0.0
 40
1.0
 40
1.0
 40
1.0
 40
1.0
 10
30.08827503456732
 20
22.78388817202262
 42
1.0
 10
30.28946430453645
 20
22.99608452206725
 42
1.0
 10
30.3901114233976
 20
23.26574829458286
 42
1.0
 10
30.3901114233976
 20
23.592986072211
 42
1.0
 72
     1
 10
30.3901114233976
 20
23.592986072211
 11
30.3901114233976
 21
24.07082189260737
 72
     4
 94
        3
 73
     1
 74
     0
 95
        8
 96
        4
 40
2.0
 40
2.0
 40
2.0
 40
2.0
 40
3.0
 40
3.0
 40
3.0
 40
3.0
 10
30.3901114233976
 20
24.07082189260737
 42
1.0
 10
30.3901114233976
 20
24.39562441836449
 42
1.0
 10
30.28914617150025
 20
24.6647585074492
 42
1.0
 10
30.08732225034711
 20
24.87811757722011
 42
1.0
 72
     4
 94
        3
 73
     1
 74
     0
 95
        8
 96
        4
 40
3.0
 40
3.0
 40
3.0
 40
3.0
 40
4.0
 40
4.0
 40
4.0
 40
4.0
 10
30.08732225034711
 20
24.87811757722011
 42
1.0
 10
29.88539255399662
 20
25.09158322963256
 42
1.0
 10
29.61964488611464
 20
25.19826599429503
 42
1.0
 10
29.29008005414544
 20
25.19826599429503
 42
1.0
 72
     4
 94
        3
 73
     1
 74
     0
 95
        8
 96
        4
 40
4.0
 40
4.0
 40
4.0
 40
4.0
 40
5.0
 40
5.0
 40
5.0
 40
5.0
 10
29.29008005414544
 20
25.19826599429503
 42
1.0
 10
28.96665341339783
 20
25.19826599429503
 42
1.0
 10
28.7069385652623
 20
25.09158322963256
 42
1.0
 10
28.5112524316086
 20
24.87811757722011
 42
1.0
 72
     4
 94
        3
 73
     1
 74
     0
 95
        8
 96
        4
 40
5.0
 40
5.0
 40
5.0
 40
5.0
 40
6.0
 40
6.0
 40
6.0
 40
6.0
 10
28.5112524316086
 20
24.87811757722011
 42
1.0
 10
28.31535515128243
 20
24.6647585074492
 42
1.0
 10
28.21745939871798
 20
24.39562441836449
 42
1.0
 10
28.21745939871798
 20
24.07082189260737
 42
1.0
 72
     1
 10
28.21745939871798
 20
24.07082189260737
 11
28.21745939871798
 21
23.592986072211
 97
        0
 92
        0
 93
       10
 72
     4
 94
        3
 73
     1
 74
     0
 95
        8
 96
        4
 40
5.0
 40
5.0
 40
5.0
 40
5.0
 40
6.0
 40
6.0
 40
6.0
 40
6.0
 10
28.6589957552157
 20
24.07463302948803
 42
1.0
 10
28.6589957552157
 20
24.29582430852614
 42
1.0
 10
28.71455841669066
 20
24.4776446057218
 42
1.0
 10
28.82589488631308
 20
24.61999056821076
 42
1.0
 72
     4
 94
        3
 73
     1
 74
     0
 95
        8
 96
        4
 40
6.0
 40
6.0
 40
6.0
 40
6.0
 40
7.0
 40
7.0
 40
7.0
 40
7.0
 10
28.82589488631308
 20
24.61999056821076
 42
1.0
 10
28.93712598446033
 20
24.76222994805799
 42
1.0
 10
29.091959879787
 20
24.83334963798162
 42
1.0
 10
29.29008005414544
 20
24.83334963798162
 42
1.0
 72
     4
 94
        3
 73
     1
 74
     0
 95
        8
 96
        4
 40
7.0
 40
7.0
 40
7.0
 40
7.0
 40
8.0
 40
8.0
 40
8.0
 40
8.0
 10
29.29008005414544
 20
24.83334963798162
 42
1.0
 10
29.49444419492279
 20
24.83334963798162
 42
1.0
 10
29.65499318068183
 20
24.76202001255176
 42
1.0
 10
29.77172701142248
 20
24.61903778399061
 42
1.0
 72
     4
 94
        3
 73
     1
 74
     0
 95
        8
 96
        4
 40
8.0
 40
8.0
 40
8.0
 40
8.0
 40
9.0
 40
9.0
 40
9.0
 40
9.0
 10
29.77172701142248
 20
24.61903778399061
 42
1.0
 10
29.88856742480473
 20
24.47605878520637
 42
1.0
 10
29.94688185629852
 20
24.29465835902278
 42
1.0
 10
29.94688185629852
 20
24.07463302948803
 42
1.0
 72
     1
 10
29.94688185629852
 20
24.07463302948803
 11
29.94688185629852
 21
23.592986072211
 72
     4
 94
        3
 73
     1
 74
     0
 95
        8
 96
        4
 40
0.0
 40
0.0
 40
0.0
 40
0.0
 40
1.0
 40
1.0
 40
1.0
 40
1.0
 10
29.94688185629852
 20
23.592986072211
 42
1.0
 10
29.94688185629852
 20
23.36925295866016
 42
1.0
 10
29.88899052559402
 20
23.18584361117182
 42
1.0
 10
29.77352680466545
 20
23.04296796525215
 42
1.0
 72
     4
 94
        3
 73
     1
 74
     0
 95
        8
 96
        4
 40
1.0
 40
1.0
 40
1.0
 40
1.0
 40
2.0
 40
2.0
 40
2.0
 40
2.0
 10
29.77352680466545
 20
23.04296796525215
 42
1.0
 10
29.65795650109532
 20
22.89998896646781
 42
1.0
 10
29.49740751533628
 20
22.82865611126111
 42
1.0
 10
29.29198481514148
 20
22.82865611126111
 42
1.0
 72
     4
 94
        3
 73
     1
 74
     0
 95
        8
 96
        4
 40
2.0
 40
2.0
 40
2.0
 40
2.0
 40
3.0
 40
3.0
 40
3.0
 40
3.0
 10
29.29198481514148
 20
22.82865611126111
 42
1.0
 10
29.09375926930786
 20
22.82865611126111
 42
1.0
 10
28.93871341986438
 20
22.89998896646781
 42
1.0
 10
28.82684767053321
 20
23.04296796525215
 42
1.0
 72
     4
 94
        3
 73
     1
 74
     0
 95
        8
 96
        4
 40
3.0
 40
3.0
 40
3.0
 40
3.0
 40
4.0
 40
4.0
 40
4.0
 40
4.0
 10
28.82684767053321
 20
23.04296796525215
 42
1.0
 10
28.71498151747993
 20
23.18584361117182
 42
1.0
 10
28.6589957552157
 20
23.36925295866016
 42
1.0
 10
28.6589957552157
 20
23.592986072211
 42
1.0
 72
     1
 10
28.6589957552157
 20
23.592986072211
 11
28.6589957552157
 21
24.07463302948803
 97
        0
 75
     0
 76
     1
 98
        1
 10
0.0
 20
0.0
  0
HATCH
  5
8F
330
1F
100
AcDbEntity
  8
CARTIGLIO
100
AcDbHatch
 10
0.0
 20
0.0
 30
0.0
210
0.0
220
0.0
230
1.0
  2
SOLID
 70
     1
 71
     0
 91
        2
 92
        0
 93
        9
 72
     4
 94
        3
 73
     1
 74
     0
 95
        8
 96
        4
 40
1.0
 40
1.0
 40
1.0
 40
1.0
 40
2.0
 40
2.0
 40
2.0
 40
2.0
 10
32.86745859329016
 20
24.33551180851623
 42
1.0
 10
32.86745859329016
 20
24.58718249326777
 42
1.0
 10
32.78596647447507
 20
24.78752556165845
 42
1.0
 10
32.62298304428916
 20
24.93643443104668
 42
1.0
 72
     4
 94
        3
 73
     1
 74
     0
 95
        8
 96
        4
 40
2.0
 40
2.0
 40
2.0
 40
2.0
 40
3.0
 40
3.0
 40
3.0
 40
3.0
 10
32.62298304428916
 20
24.93643443104668
 42
1.0
 10
32.45999961410329
 20
25.08544665329945
 42
1.0
 10
32.22896558960456
 20
25.15995437931426
 42
1.0
 10
31.92977519559571
 20
25.15995437931426
 42
1.0
 72
     1
 10
31.92977519559571
 20
25.15995437931426
 11
30.89176119718779
 21
25.15995437931426
 72
     1
 10
30.89176119718779
 20
25.15995437931426
 11
30.89176119718779
 21
22.50396016814565
 72
     1
 10
30.89176119718779
 20
22.50396016814565
 11
31.33509734692847
 21
22.50396016814565
 72
     1
 10
31.33509734692847
 20
22.50396016814565
 11
31.33509734692847
 21
23.51085930221197
 72
     1
 10
31.33509734692847
 20
23.51085930221197
 11
31.92977519559571
 21
23.51085930221197
 72
     4
 94
        3
 73
     1
 74
     0
 95
        8
 96
        4
 40
8.0
 40
8.0
 40
8.0
 40
8.0
 40
9.0
 40
9.0
 40
9.0
 40
9.0
 10
31.92977519559571
 20
23.51085930221197
 42
1.0
 10
32.22896558960456
 20
23.51085930221197
 42
1.0
 10
32.45999961410329
 20
23.58473076215448
 42
1.0
 10
32.62298304428916
 20
23.73257703490395
 42
1.0
 72
     4
 94
        3
 73
     1
 74
     0
 95
        8
 96
        4
 40
0.0
 40
0.0
 40
0.0
 40
0.0
 40
1.0
 40
1.0
 40
1.0
 40
1.0
 10
32.62298304428916
 20
23.73257703490395
 42
1.0
 10
32.78596647447507
 20
23.8803231845659
 42
1.0
 10
32.86745859329016
 20
24.08129928925201
 42
1.0
 10
32.86745859329016
 20
24.33551180851623
 42
1.0
 97
        0
 92
        0
 93
        7
 72
     1
 10
31.33509734692847
 20
23.86656433447171
 11
31.33509734692847
 21
24.80424611727766
 72
     1
 10
31.33509734692847
 20
24.80424611727766
 11
31.92977519559571
 21
24.80424611727766
 72
     4
 94
        3
 73
     1
 74
     0
 95
        8
 96
        4
 40
5.0
 40
5.0
 40
5.0
 40
5.0
 40
6.0
 40
6.0
 40
6.0
 40
6.0
 10
31.92977519559571
 20
24.80424611727766
 42
1.0
 10
32.09762670719111
 20
24.80424611727766
 42
1.0
 10
32.22198038936015
 20
24.75979792596378
 42
1.0
 10
32.30283704954704
 20
24.67110824906546
 42
1.0
 72
     4
 94
        3
 73
     1
 74
     0
 95
        8
 96
        4
 40
6.0
 40
6.0
 40
6.0
 40
6.0
 40
7.0
 40
7.0
 40
7.0
 40
7.0
 10
32.30283704954704
 20
24.67110824906546
 42
1.0
 10
32.38369370973393
 20
24.58231521930243
 42
1.0
 10
32.42412244354951
 20
24.46917936015927
 42
1.0
 10
32.42412244354951
 20
24.3317006716357
 42
1.0
 72
     4
 94
        3
 73
     1
 74
     0
 95
        8
 96
        4
 40
0.0
 40
0.0
 40
0.0
 40
0.0
 40
1.0
 40
1.0
 40
1.0
 40
1.0
 10
32.42412244354951
 20
24.3317006716357
 42
1.0
 10
32.42412244354951
 20
24.1943285657536
 42
1.0
 10
32.38369370973393
 20
24.08246523875526
 42
1.0
 10
32.30283704954704
 20
23.99610423108644
 42
1.0
 72
     4
 94
        3
 73
     1
 74
     0
 95
        8
 96
        4
 40
1.0
 40
1.0
 40
1.0
 40
1.0
 40
2.0
 40
2.0
 40
2.0
 40
2.0
 10
32.30283704954704
 20
23.99610423108644
 42
1.0
 10
32.22198038936015
 20
23.90974322341763
 42
1.0
 10
32.09762670719111
 20
23.86656433447171
 42
1.0
 10
31.92977519559571
 20
23.86656433447171
 42
1.0
 72
     1
 10
31.92977519559571
 20
23.86656433447171
 11
31.33509734692847
 21
23.86656433447171
 97
        0
 75
     0
 76
     1
 98
        1
 10
0.0
 20
0.0
  0
HATCH
  5
90
330
1F
100
AcDbEntity
  8
CARTIGLIO
100
AcDbHatch
 10
0.0
 20
0.0
 30
0.0
210
0.0
220
0.0
230
1.0
  2
SOLID
 70
     1
 71
     0
 91
        2
 92
        0
 93
       10
 72
     4
 94
        3
 73
     1
 74
     0
 95
        8
 96
        4
 40
4.0
 40
4.0
 40
4.0
 40
4.0
 40
5.0
 40
5.0
 40
5.0
 40
5.0
 10
36.54326054981952
 20
25.19826599429503
 42
1.0
 10
36.21962316612154
 20
25.19826599429503
 42
1.0
 10
35.96012027210281
 20
25.09158322963256
 42
1.0
 10
35.76422218433232
 20
24.87811757722011
 42
1.0
 72
     4
 94
        3
 73
     1
 74
     0
 95
        8
 96
        4
 40
5.0
 40
5.0
 40
5.0
 40
5.0
 40
6.0
 40
6.0
 40
6.0
 40
6.0
 10
35.76422218433232
 20
24.87811757722011
 42
1.0
 10
35.56853645440079
 20
24.6647585074492
 42
1.0
 10
35.47053533036116
 20
24.39562441836449
 42
1.0
 10
35.47053533036116
 20
24.07082189260737
 42
1.0
 72
     1
 10
35.47053533036116
 20
24.07082189260737
 11
35.47053533036116
 21
23.592986072211
 72
     4
 94
        3
 73
     1
 74
     0
 95
        8
 96
        4
 40
7.0
 40
7.0
 40
7.0
 40
7.0
 40
8.0
 40
8.0
 40
8.0
 40
8.0
 10
35.47053533036116
 20
23.592986072211
 42
1.0
 10
35.47053533036116
 20
23.26701759695066
 42
1.0
 10
35.5687480047954
 20
22.99767357235982
 42
1.0
 10
35.76528074374978
 20
22.78473437360121
 42
1.0
 72
     4
 94
        3
 73
     1
 74
     0
 95
        8
 96
        4
 40
8.0
 40
8.0
 40
8.0
 40
8.0
 40
9.0
 40
9.0
 40
9.0
 40
9.0
 10
35.76528074374978
 20
22.78473437360121
 42
1.0
 10
35.96160193230953
 20
22.57201156990274
 42
1.0
 10
36.22152792711756
 20
22.46554197052342
 42
1.0
 10
36.54506115050674
 20
22.46554197052342
 42
1.0
 72
     4
 94
        3
 73
     1
 74
     0
 95
        8
 96
        4
 40
9.0
 40
9.0
 40
9.0
 40
9.0
 40
10.0
 40
10.0
 40
10.0
 40
10.0
 10
36.54506115050674
 20
22.46554197052342
 42
1.0
 10
36.87462598247596
 20
22.46554197052342
 42
1.0
 10
37.14005551732173
 20
22.5715884691135
 42
1.0
 10
37.3413513699325
 20
22.78388817202262
 42
1.0
 72
     4
 94
        3
 73
     1
 74
     0
 95
        8
 96
        4
 40
0.0
 40
0.0
 40
0.0
 40
0.0
 40
1.0
 40
1.0
 40
1.0
 40
1.0
 10
37.3413513699325
 20
22.78388817202262
 42
1.0
 10
37.5426456076548
 20
22.99608452206725
 42
1.0
 10
37.64329353396021
 20
23.26574829458286
 42
1.0
 10
37.64329353396021
 20
23.592986072211
 42
1.0
 72
     1
 10
37.64329353396021
 20
23.592986072211
 11
37.64329353396021
 21
24.07082189260737
 72
     4
 94
        3
 73
     1
 74
     0
 95
        8
 96
        4
 40
2.0
 40
2.0
 40
2.0
 40
2.0
 40
3.0
 40
3.0
 40
3.0
 40
3.0
 10
37.64329353396021
 20
24.07082189260737
 42
1.0
 10
37.64329353396021
 20
24.39562441836449
 42
1.0
 10
37.54222250686551
 20
24.6647585074492
 42
1.0
 10
37.34050355346545
 20
24.87811757722011
 42
1.0
 72
     4
 94
        3
 73
     1
 74
     0
 95
        8
 96
        4
 40
3.0
 40
3.0
 40
3.0
 40
3.0
 40
4.0
 40
4.0
 40
4.0
 40
4.0
 10
37.34050355346545
 20
24.87811757722011
 42
1.0
 10
37.1385746645592
 20
25.09158322963256
 42
1.0
 10
36.87272041403564
 20
25.19826599429503
 42
1.0
 10
36.54326054981952
 20
25.19826599429503
 42
1.0
 97
        0
 92
        0
 93
       10
 72
     4
 94
        3
 73
     1
 74
     0
 95
        8
 96
        4
 40
7.0
 40
7.0
 40
7.0
 40
7.0
 40
8.0
 40
8.0
 40
8.0
 40
8.0
 10
36.54326054981952
 20
24.83334963798162
 42
1.0
 10
36.74751972284383
 20
24.83334963798162
 42
1.0
 10
36.90806870860284
 20
24.76202001255176
 42
1.0
 10
37.02490912198509
 20
24.61903778399061
 42
1.0
 72
     4
 94
        3
 73
     1
 74
     0
 95
        8
 96
        4
 40
8.0
 40
8.0
 40
8.0
 40
8.0
 40
9.0
 40
9.0
 40
9.0
 40
9.0
 10
37.02490912198509
 20
24.61903778399061
 42
1.0
 10
37.14153798497269
 20
24.47605878520637
 42
1.0
 10
37.19995657677534
 20
24.29465835902278
 42
1.0
 10
37.19995657677534
 20
24.07463302948803
 42
1.0
 72
     1
 10
37.19995657677534
 20
24.07463302948803
 11
37.19995657677534
 21
23.592986072211
 72
     4
 94
        3
 73
     1
 74
     0
 95
        8
 96
        4
 40
0.0
 40
0.0
 40
0.0
 40
0.0
 40
1.0
 40
1.0
 40
1.0
 40
1.0
 10
37.19995657677534
 20
23.592986072211
 42
1.0
 10
37.19995657677534
 20
23.36925295866016
 42
1.0
 10
37.14217263615661
 20
23.18573702853024
 42
1.0
 10
37.02670810778381
 20
23.04296796525215
 42
1.0
 72
     4
 94
        3
 73
     1
 74
     0
 95
        8
 96
        4
 40
1.0
 40
1.0
 40
1.0
 40
1.0
 40
2.0
 40
2.0
 40
2.0
 40
2.0
 10
37.02670810778381
 20
23.04296796525215
 42
1.0
 10
36.91103202901633
 20
22.89998896646781
 42
1.0
 10
36.75058962589887
 20
22.82865611126111
 42
1.0
 10
36.54506115050674
 20
22.82865611126111
 42
1.0
 72
     4
 94
        3
 73
     1
 74
     0
 95
        8
 96
        4
 40
2.0
 40
2.0
 40
2.0
 40
2.0
 40
3.0
 40
3.0
 40
3.0
 40
3.0
 10
36.54506115050674
 20
22.82865611126111
 42
1.0
 10
36.34672942575369
 20
22.82865611126111
 42
1.0
 10
36.19178894778541
 20
22.89998896646781
 42
1.0
 10
36.07992319845422
 20
23.04296796525215
 42
1.0
 72
     4
 94
        3
 73
     1
 74
     0
 95
        8
 96
        4
 40
3.0
 40
3.0
 40
3.0
 40
3.0
 40
4.0
 40
4.0
 40
4.0
 40
4.0
 10
36.07992319845422
 20
23.04296796525215
 42
1.0
 10
35.96795167392578
 20
23.18573702853024
 42
1.0
 10
35.91207168685884
 20
23.36925295866016
 42
1.0
 10
35.91207168685884
 20
23.592986072211
 42
1.0
 72
     1
 10
35.91207168685884
 20
23.592986072211
 11
35.91207168685884
 21
24.07463302948803
 72
     4
 94
        3
 73
     1
 74
     0
 95
        8
 96
        4
 40
5.0
 40
5.0
 40
5.0
 40
5.0
 40
6.0
 40
6.0
 40
6.0
 40
6.0
 10
35.91207168685884
 20
24.07463302948803
 42
1.0
 10
35.91207168685884
 20
24.29582430852614
 42
1.0
 10
35.96774012353114
 20
24.4776446057218
 42
1.0
 10
36.07907699687568
 20
24.61999056821076
 42
1.0
 72
     4
 94
        3
 73
     1
 74
     0
 95
        8
 96
        4
 40
6.0
 40
6.0
 40
6.0
 40
6.0
 40
7.0
 40
7.0
 40
7.0
 40
7.0
 10
36.07907699687568
 20
24.61999056821076
 42
1.0
 10
36.19020151238131
 20
24.76222994805799
 42
1.0
 10
36.34492963251071
 20
24.83334963798162
 42
1.0
 10
36.54326054981952
 20
24.83334963798162
 42
1.0
 97
        0
 75
     0
 76
     1
 98
        1
 10
0.0
 20
0.0
  0
HATCH
  5
91
330
1F
100
AcDbEntity
  8
CARTIGLIO
100
AcDbHatch
 10
0.0
 20
0.0
 30
0.0
210
0.0
220
0.0
230
1.0
  2
SOLID
 70
     1
 71
     0
 91
        1
 92
        0
 93
       12
 72
     1
 10
39.35070223511212
 20
22.68810913457098
 11
39.35070223511212
 21
23.78994110451038
 72
     1
 10
39.35070223511212
 20
23.78994110451038
 11
40.62948722828203
 21
23.78994110451038
 72
     1
 10
40.62948722828203
 20
23.78994110451038
 11
40.62948722828203
 21
23.97599563937588
 72
     1
 10
40.62948722828203
 20
23.97599563937588
 11
39.35070223511212
 21
23.97599563937588
 72
     1
 10
39.35070223511212
 20
23.97599563937588
 11
39.35070223511212
 21
24.97389661467173
 72
     1
 10
39.35070223511212
 20
24.97389661467173
 11
40.80644025151251
 21
24.97389661467173
 72
     1
 10
40.80644025151251
 20
24.97389661467173
 11
40.80644025151251
 21
25.15995437931426
 72
     1
 10
40.80644025151251
 20
25.15995437931426
 11
39.13363861110228
 21
25.15995437931426
 72
     1
 10
39.13363861110228
 20
25.15995437931426
 11
39.13363861110228
 21
22.50396016814565
 72
     1
 10
39.13363861110228
 20
22.50396016814565
 11
40.81564673090066
 21
22.50396016814565
 72
     1
 10
40.81564673090066
 20
22.50396016814565
 11
40.81564673090066
 21
22.68810913457098
 72
     1
 10
40.81564673090066
 20
22.68810913457098
 11
39.35070223511212
 21
22.68810913457098
 97
        0
 75
     0
 76
     1
 98
        1
 10
0.0
 20
0.0
  0
HATCH
  5
92
330
1F
100
AcDbEntity
  8
CARTIGLIO
100
AcDbHatch
 10
0.0
 20
0.0
 30
0.0
210
0.0
220
0.0
230
1.0
  2
SOLID
 70
     1
 71
     0
 91
        1
 92
        0
 93
       12
 72
     1
 10
41.51054940508415
 20
24.79694359144125
 11
43.02470601328704
 21
22.50396016814565
 72
     1
 10
43.02470601328704
 20
22.50396016814565
 11
43.24177125218543
 21
22.50396016814565
 72
     1
 10
43.24177125218543
 20
22.50396016814565
 11
43.24177125218543
 21
25.15995437931426
 72
     1
 10
43.24177125218543
 20
25.15995437931426
 11
43.02470601328704
 21
25.15995437931426
 72
     1
 10
43.02470601328704
 20
25.15995437931426
 11
43.02470601328704
 21
22.8723646836379
 72
     1
 10
43.02470601328704
 20
22.8723646836379
 11
43.01920247324937
 21
22.87056569783918
 72
     1
 10
43.01920247324937
 20
22.87056569783918
 11
41.50515083279944
 21
25.15995437931426
 72
     1
 10
41.50515083279944
 20
25.15995437931426
 11
41.28618164034928
 21
25.15995437931426
 72
     1
 10
41.28618164034928
 20
25.15995437931426
 11
41.28618164034928
 21
22.50396016814565
 72
     1
 10
41.28618164034928
 20
22.50396016814565
 11
41.50515083279944
 21
22.50396016814565
 72
     1
 10
41.50515083279944
 20
22.50396016814565
 11
41.50515083279944
 21
24.79503802300098
 72
     1
 10
41.50515083279944
 20
24.79503802300098
 11
41.51054940508415
 21
24.79694359144125
 97
        0
 75
     0
 76
     1
 98
        1
 10
0.0
 20
0.0
  0
HATCH
  5
93
330
1F
100
AcDbEntity
  8
CARTIGLIO
100
AcDbHatch
 10
0.0
 20
0.0
 30
0.0
210
0.0
220
0.0
230
1.0
  2
SOLID
 70
     1
 71
     0
 91
        1
 92
        0
 93
       24
 72
     4
 94
        3
 73
     1
 74
     0
 95
        8
 96
        4
 40
23.0
 40
23.0
 40
23.0
 40
23.0
 40
24.0
 40
24.0
 40
24.0
 40
24.0
 10
45.52025620644977
 20
22.57592605964776
 42
1.0
 10
45.67466700098719
 20
22.64958758408419
 42
1.0
 10
45.78177125155042
 20
22.73076156986306
 42
1.0
 10
45.84135579285634
 20
22.81944801698443
 42
1.0
 72
     1
 10
45.84135579285634
 20
22.81944801698443
 11
45.84135579285634
 21
23.76443555540381
 72
     1
 10
45.84135579285634
 20
23.76443555540381
 11
44.91637187839437
 21
23.76443555540381
 72
     1
 10
44.91637187839437
 20
23.76443555540381
 11
44.91637187839437
 21
23.57838102053819
 72
     1
 10
44.91637187839437
 20
23.57838102053819
 11
45.62418558620491
 21
23.57838102053819
 72
     1
 10
45.62418558620491
 20
23.57838102053819
 11
45.62418558620491
 21
22.88517074951196
 72
     4
 94
        3
 73
     1
 74
     0
 95
        8
 96
        4
 40
5.0
 40
5.0
 40
5.0
 40
5.0
 40
6.0
 40
6.0
 40
6.0
 40
6.0
 10
45.62418558620491
 20
22.88517074951196
 42
1.0
 10
45.57677245958914
 20
22.82431852072672
 42
1.0
 10
45.4926351533968
 20
22.7699193864222
 42
1.0
 10
45.37156050234471
 20
22.72197657637567
 42
1.0
 72
     4
 94
        3
 73
     1
 74
     0
 95
        8
 96
        4
 40
6.0
 40
6.0
 40
6.0
 40
6.0
 40
7.0
 40
7.0
 40
7.0
 40
7.0
 10
45.37156050234471
 20
22.72197657637567
 42
1.0
 10
45.25048746618116
 20
22.67382060104595
 42
1.0
 10
45.10062742746127
 20
22.64979751959026
 42
1.0
 10
44.9217688357905
 20
22.64979751959026
 42
1.0
 72
     4
 94
        3
 73
     1
 74
     0
 95
        8
 96
        4
 40
7.0
 40
7.0
 40
7.0
 40
7.0
 40
8.0
 40
8.0
 40
8.0
 40
8.0
 10
44.9217688357905
 20
22.64979751959026
 42
1.0
 10
44.66766289916783
 20
22.64979751959026
 42
1.0
 10
44.46425154261061
 20
22.73700472883775
 42
1.0
 10
44.31163973387193
 20
22.91162908283867
 42
1.0
 72
     4
 94
        3
 73
     1
 74
     0
 95
        8
 96
        4
 40
8.0
 40
8.0
 40
8.0
 40
8.0
 40
9.0
 40
9.0
 40
9.0
 40
9.0
 10
44.31163973387193
 20
22.91162908283867
 42
1.0
 10
44.15902792513322
 20
23.08615008397508
 42
1.0
 10
44.08282779596116
 20
23.31506698963886
 42
1.0
 10
44.08282779596116
 20
23.5983830296071
 42
1.0
 72
     1
 10
44.08282779596116
 20
23.5983830296071
 11
44.08282779596116
 21
24.08913149851924
 72
     4
 94
        3
 73
     1
 74
     0
 95
        8
 96
        4
 40
10.0
 40
10.0
 40
10.0
 40
10.0
 40
11.0
 40
11.0
 40
11.0
 40
11.0
 10
44.08282779596116
 20
24.08913149851924
 42
1.0
 10
44.08282779596116
 20
24.36397906314777
 42
1.0
 10
44.15447716931565
 20
24.58654622719533
 42
1.0
 10
44.29798746641926
 20
24.75672640802029
 42
1.0
 72
     4
 94
        3
 73
     1
 74
     0
 95
        8
 96
        4
 40
11.0
 40
11.0
 40
11.0
 40
11.0
 40
12.0
 40
12.0
 40
12.0
 40
12.0
 10
44.29798746641926
 20
24.75672640802029
 42
1.0
 10
44.44149776352283
 20
24.92701317148688
 42
1.0
 10
44.63485482422487
 20
25.01220822965239
 42
1.0
 10
44.87806026341374
 20
25.01220822965239
 42
1.0
 72
     4
 94
        3
 73
     1
 74
     0
 95
        8
 96
        4
 40
12.0
 40
12.0
 40
12.0
 40
12.0
 40
13.0
 40
13.0
 40
13.0
 40
13.0
 10
44.87806026341374
 20
25.01220822965239
 42
1.0
 10
45.11163450753667
 20
25.01220822965239
 42
1.0
 10
45.28604731114294
 20
24.95802226063113
 42
1.0
 10
45.40161842215735
 20
24.84986025809469
 42
1.0
 72
     4
 94
        3
 73
     1
 74
     0
 95
        8
 96
        4
 40
13.0
 40
13.0
 40
13.0
 40
13.0
 40
14.0
 40
14.0
 40
14.0
 40
14.0
 10
45.40161842215735
 20
24.84986025809469
 42
1.0
 10
45.51708133564165
 20
24.7415949026937
 42
1.0
 10
45.59074124518951
 20
24.59692027097532
 42
1.0
 10
45.62238660040622
 20
24.41573301007496
 42
1.0
 72
     1
 10
45.62238660040622
 20
24.41573301007496
 11
45.83955680705765
 21
24.41573301007496
 72
     4
 94
        3
 73
     1
 74
     0
 95
        8
 96
        4
 40
15.0
 40
15.0
 40
15.0
 40
15.0
 40
16.0
 40
16.0
 40
16.0
 40
16.0
 10
45.83955680705765
 20
24.41573301007496
 42
1.0
 10
45.80780648408789
 20
24.65534047766643
 42
1.0
 10
45.71266209782014
 20
24.84562925020184
 42
1.0
 10
45.55401706561291
 20
24.98659932768127
 42
1.0
 72
     4
 94
        3
 73
     1
 74
     0
 95
        8
 96
        4
 40
16.0
 40
16.0
 40
16.0
 40
16.0
 40
17.0
 40
17.0
 40
17.0
 40
17.0
 10
45.55401706561291
 20
24.98659932768127
 42
1.0
 10
45.39526706565262
 20
25.12767275802522
 42
1.0
 10
45.16994813158618
 20
25.19826599429503
 42
1.0
 10
44.87806026341374
 20
25.19826599429503
 42
1.0
 72
     4
 94
        3
 73
     1
 74
     0
 95
        8
 96
        4
 40
17.0
 40
17.0
 40
17.0
 40
17.0
 40
18.0
 40
18.0
 40
18.0
 40
18.0
 10
44.87806026341374
 20
25.19826599429503
 42
1.0
 10
44.57283664593629
 20
25.19826599429503
 42
1.0
 10
44.32740912015946
 20
25.09645373337482
 42
1.0
 10
44.14198923647778
 20
24.89272262889289
 42
1.0
 72
     4
 94
        3
 73
     1
 74
     0
 95
        8
 96
        4
 40
18.0
 40
18.0
 40
18.0
 40
18.0
 40
19.0
 40
19.0
 40
19.0
 40
19.0
 10
44.14198923647778
 20
24.89272262889289
 42
1.0
 10
43.95656935279613
 20
24.68899475418798
 42
1.0
 10
43.86385860351103
 20
24.41996724774478
 42
1.0
 10
43.86385860351103
 20
24.08542694428029
 42
1.0
 72
     1
 10
43.86385860351103
 20
24.08542694428029
 11
43.86385860351103
 21
23.5983830296071
 72
     4
 94
        3
 73
     1
 74
     0
 95
        8
 96
        4
 40
20.0
 40
20.0
 40
20.0
 40
20.0
 40
21.0
 40
21.0
 40
21.0
 40
21.0
 10
43.86385860351103
 20
23.5983830296071
 42
1.0
 10
43.86385860351103
 20
23.2567533655893
 42
1.0
 10
43.96112010861367
 20
22.9824322546146
 42
1.0
 10
44.155748086572
 20
22.7757394446077
 42
1.0
 72
     4
 94
        3
 73
     1
 74
     0
 95
        8
 96
        4
 40
21.0
 40
21.0
 40
21.0
 40
21.0
 40
22.0
 40
22.0
 40
22.0
 40
22.0
 10
44.155748086572
 20
22.7757394446077
 42
1.0
 10
44.35026948188878
 20
22.56894005195917
 42
1.0
 10
44.60564472087928
 20
22.46554197052342
 42
1.0
 10
44.9217688357905
 20
22.46554197052342
 42
1.0
 72
     4
 94
        3
 73
     1
 74
     0
 95
        8
 96
        4
 40
22.0
 40
22.0
 40
22.0
 40
22.0
 40
23.0
 40
23.0
 40
23.0
 40
23.0
 10
44.9217688357905
 20
22.46554197052342
 42
1.0
 10
45.16635015998877
 20
22.46554197052342
 42
1.0
 10
45.36574044415931
 20
22.50237111785311
 42
1.0
 10
45.52025620644977
 20
22.57592605964776
 42
1.0
 97
        0
 75
     0
 76
     1
 98
        1
 10
0.0
 20
0.0
  0
HATCH
  5
94
330
1F
100
AcDbEntity
  8
CARTIGLIO
100
AcDbHatch
 10
0.0
 20
0.0
 30
0.0
210
0.0
220
0.0
230
1.0
  2
SOLID
 70
     1
 71
     0
 91
        1
 92
        0
 93
       12
 72
     1
 10
47.73841700047124
 20
24.79694359144125
 11
49.25257522356278
 21
22.50396016814565
 72
     1
 10
49.25257522356278
 20
22.50396016814565
 11
49.46963884757261
 21
22.50396016814565
 72
     1
 10
49.46963884757261
 20
22.50396016814565
 11
49.46963884757261
 21
25.15995437931426
 72
     1
 10
49.46963884757261
 20
25.15995437931426
 11
49.25257522356278
 21
25.15995437931426
 72
     1
 10
49.25257522356278
 20
25.15995437931426
 11
49.25257522356278
 21
22.8723646836379
 72
     1
 10
49.25257522356278
 20
22.8723646836379
 11
49.24707168352508
 21
22.87056569783918
 72
     1
 10
49.24707168352508
 20
22.87056569783918
 11
47.73302004307515
 21
25.15995437931426
 72
     1
 10
47.73302004307515
 20
25.15995437931426
 11
47.514050850625
 21
25.15995437931426
 72
     1
 10
47.514050850625
 20
25.15995437931426
 11
47.514050850625
 21
22.50396016814565
 72
     1
 10
47.514050850625
 20
22.50396016814565
 11
47.73302004307515
 21
22.50396016814565
 72
     1
 10
47.73302004307515
 20
22.50396016814565
 11
47.73302004307515
 21
24.79503802300098
 72
     1
 10
47.73302004307515
 20
24.79503802300098
 11
47.73841700047124
 21
24.79694359144125
 97
        0
 75
     0
 76
     1
 98
        1
 10
0.0
 20
0.0
  0
HATCH
  5
95
330
1F
100
AcDbEntity
  8
CARTIGLIO
100
AcDbHatch
 10
0.0
 20
0.0
 30
0.0
210
0.0
220
0.0
230
1.0
  2
SOLID
 70
     1
 71
     0
 91
        2
 92
        0
 93
       17
 72
     4
 94
        3
 73
     1
 74
     0
 95
        8
 96
        4
 40
16.0
 40
16.0
 40
16.0
 40
16.0
 40
17.0
 40
17.0
 40
17.0
 40
17.0
 10
55.78323118455623
 20
23.80634514198188
 42
1.0
 10
55.93161037051362
 20
23.8574628228366
 42
1.0
 10
56.04633205017243
 20
23.93747085911208
 42
1.0
 10
56.12708293516201
 20
24.04626912772104
 42
1.0
 72
     4
 94
        3
 73
     1
 74
     0
 95
        8
 96
        4
 40
0.0
 40
0.0
 40
0.0
 40
0.0
 40
1.0
 40
1.0
 40
1.0
 40
1.0
 10
56.12708293516201
 20
24.04626912772104
 42
1.0
 10
56.20794040279318
 20
24.15506416655289
 42
1.0
 10
56.2484741043618
 20
24.28132583949485
 42
1.0
 10
56.2484741043618
 20
24.42472793906839
 42
1.0
 72
     4
 94
        3
 73
     1
 74
     0
 95
        8
 96
        4
 40
1.0
 40
1.0
 40
1.0
 40
1.0
 40
2.0
 40
2.0
 40
2.0
 40
2.0
 10
56.2484741043618
 20
24.42472793906839
 42
1.0
 10
56.2484741043618
 20
24.6692026806252
 42
1.0
 10
56.17386302548233
 20
24.85261202811351
 42
1.0
 10
56.0250607387357
 20
24.97474604602726
 42
1.0
 72
     4
 94
        3
 73
     1
 74
     0
 95
        8
 96
        4
 40
2.0
 40
2.0
 40
2.0
 40
2.0
 40
3.0
 40
3.0
 40
3.0
 40
3.0
 10
56.0250607387357
 20
24.97474604602726
 42
1.0
 10
55.8760485164829
 20
25.09708676967026
 42
1.0
 10
55.65612653981265
 20
25.15815216373862
 42
1.0
 10
55.3656145566496
 20
25.15815216373862
 42
1.0
 72
     1
 10
55.3656145566496
 20
25.15815216373862
 11
54.46624115904728
 21
25.15815216373862
 72
     1
 10
54.46624115904728
 20
25.15815216373862
 11
54.46624115904728
 21
22.50396016814565
 72
     1
 10
54.46624115904728
 20
22.50396016814565
 11
54.68320143019257
 21
22.50396016814565
 72
     1
 10
54.68320143019257
 20
22.50396016814565
 11
54.68320143019257
 21
23.70421636291395
 72
     1
 10
54.68320143019257
 20
23.70421636291395
 11
55.42212919490045
 21
23.70421636291395
 72
     4
 94
        3
 73
     1
 74
     0
 95
        8
 96
        4
 40
8.0
 40
8.0
 40
8.0
 40
8.0
 40
9.0
 40
9.0
 40
9.0
 40
9.0
 10
55.42212919490045
 20
23.70421636291395
 42
1.0
 10
55.61421695323455
 20
23.70421636291395
 42
1.0
 10
55.76100708889937
 20
23.65796595602448
 42
1.0
 10
55.8626061845364
 20
23.56557495466413
 42
1.0
 72
     4
 94
        3
 73
     1
 74
     0
 95
        8
 96
        4
 40
9.0
 40
9.0
 40
9.0
 40
9.0
 40
10.0
 40
10.0
 40
10.0
 40
10.0
 10
55.8626061845364
 20
23.56557495466413
 42
1.0
 10
55.96410192730887
 20
23.47307414088515
 42
1.0
 10
56.01500644288047
 20
23.34353424427044
 42
1.0
 10
56.01500644288047
 20
23.17705861768446
 42
1.0
 72
     1
 10
56.01500644288047
 20
23.17705861768446
 11
56.01500644288047
 21
22.50385358550411
 72
     1
 10
56.01500644288047
 20
22.50385358550411
 11
56.23386905268904
 21
22.50385358550411
 72
     1
 10
56.23386905268904
 20
22.50385358550411
 11
56.23386905268904
 21
23.18076317192341
 72
     4
 94
        3
 73
     1
 74
     0
 95
        8
 96
        4
 40
13.0
 40
13.0
 40
13.0
 40
13.0
 40
14.0
 40
14.0
 40
14.0
 40
14.0
 10
56.23386905268904
 20
23.18076317192341
 42
1.0
 10
56.23386905268904
 20
23.34491012927986
 42
1.0
 10
56.19947515723049
 20
23.4788974288476
 42
1.0
 10
56.13078748940102
 20
23.58293177635573
 42
1.0
 72
     4
 94
        3
 73
     1
 74
     0
 95
        8
 96
        4
 40
14.0
 40
14.0
 40
14.0
 40
14.0
 40
15.0
 40
15.0
 40
15.0
 40
15.0
 10
56.13078748940102
 20
23.58293177635573
 42
1.0
 10
56.06210305134849
 20
23.68685954122235
 42
1.0
 10
55.94621542218643
 20
23.75956505166155
 42
1.0
 10
55.78323118455623
 20
23.80094818458575
 42
1.0
 72
     1
 10
55.78323118455623
 20
23.80094818458575
 11
55.78323118455623
 21
23.80634514198188
 97
        0
 92
        0
 93
        7
 72
     4
 94
        3
 73
     1
 74
     0
 95
        8
 96
        4
 40
5.0
 40
5.0
 40
5.0
 40
5.0
 40
6.0
 40
6.0
 40
6.0
 40
6.0
 10
55.3656145566496
 20
24.97209762887304
 42
1.0
 10
55.59294241202082
 20
24.97209762887304
 42
1.0
 10
55.76037082282693
 20
24.9258504517606
 42
1.0
 10
55.86810972457408
 20
24.83334963798162
 42
1.0
 72
     4
 94
        3
 73
     1
 74
     0
 95
        8
 96
        4
 40
6.0
 40
6.0
 40
6.0
 40
6.0
 40
7.0
 40
7.0
 40
7.0
 40
7.0
 10
55.86810972457408
 20
24.83334963798162
 42
1.0
 10
55.97574204367965
 20
24.74095863662124
 42
1.0
 10
56.02950491191167
 20
24.60538551653796
 42
1.0
 10
56.02950491191167
 20
24.42652692486719
 42
1.0
 72
     4
 94
        3
 73
     1
 74
     0
 95
        8
 96
        4
 40
0.0
 40
0.0
 40
0.0
 40
0.0
 40
1.0
 40
1.0
 40
1.0
 40
1.0
 10
56.02950491191167
 20
24.42652692486719
 42
1.0
 10
56.02950491191167
 20
24.25867541327176
 42
1.0
 10
55.97542552553198
 20
24.12733653085833
 42
1.0
 10
55.86726352299554
 20
24.03251027762684
 42
1.0
 72
     4
 94
        3
 73
     1
 74
     0
 95
        8
 96
        4
 40
1.0
 40
1.0
 40
1.0
 40
1.0
 40
2.0
 40
2.0
 40
2.0
 40
2.0
 10
55.86726352299554
 20
24.03251027762684
 42
1.0
 10
55.7589949378175
 20
23.93768402439533
 42
1.0
 10
55.58257159801786
 20
23.89037748042114
 42
1.0
 10
55.33809685646116
 20
23.89037748042114
 42
1.0
 72
     1
 10
55.33809685646116
 20
23.89037748042114
 11
54.68320143019257
 21
23.89037748042114
 72
     1
 10
54.68320143019257
 20
23.89037748042114
 11
54.68320143019257
 21
24.97209762887304
 72
     1
 10
54.68320143019257
 20
24.97209762887304
 11
55.3656145566496
 21
24.97209762887304
 97
        0
 75
     0
 76
     1
 98
        1
 10
0.0
 20
0.0
  0
HATCH
  5
96
330
1F
100
AcDbEntity
  8
CARTIGLIO
100
AcDbHatch
 10
0.0
 20
0.0
 30
0.0
210
0.0
220
0.0
230
1.0
  2
SOLID
 70
     1
 71
     0
 91
        1
 92
        0
 93
       12
 72
     1
 10
58.13728323169724
 20
24.7968402385767
 11
59.65133487214717
 21
22.50396016814565
 72
     1
 10
59.65133487214717
 20
22.50396016814565
 11
59.86829191351546
 21
22.50396016814565
 72
     1
 10
59.86829191351546
 20
22.50396016814565
 11
59.86829191351546
 21
25.15995437931426
 72
     1
 10
59.86829191351546
 20
25.15995437931426
 11
59.65133487214717
 21
25.15995437931426
 72
     1
 10
59.65133487214717
 20
25.15995437931426
 11
59.65133487214717
 21
22.8723646836379
 72
     1
 10
59.65133487214717
 20
22.8723646836379
 11
59.64583133210947
 21
22.87056569783918
 72
     1
 10
59.64583133210947
 20
22.87056569783918
 11
58.13177969165957
 21
25.15995437931426
 72
     1
 10
58.13177969165957
 20
25.15995437931426
 11
57.91281049920939
 21
25.15995437931426
 72
     1
 10
57.91281049920939
 20
25.15995437931426
 11
57.91281049920939
 21
22.50396016814565
 72
     1
 10
57.91281049920939
 20
22.50396016814565
 11
58.13177969165957
 21
22.50396016814565
 72
     1
 10
58.13177969165957
 20
22.50396016814565
 11
58.13177969165957
 21
24.79503802300098
 72
     1
 10
58.13177969165957
 20
24.79503802300098
 11
58.13728323169724
 21
24.7968402385767
 97
        0
 75
     0
 76
     1
 98
        1
 10
0.0
 20
0.0
  0
HATCH
  5
97
330
1F
100
AcDbEntity
  8
CARTIGLIO
100
AcDbHatch
 10
0.0
 20
0.0
 30
0.0
210
0.0
220
0.0
230
1.0
  2
SOLID
 70
     1
 71
     0
 91
        1
 92
        0
 93
       24
 72
     4
 94
        3
 73
     1
 74
     0
 95
        8
 96
        4
 40
19.0
 40
19.0
 40
19.0
 40
19.0
 40
20.0
 40
20.0
 40
20.0
 40
20.0
 10
62.14688668019844
 20
22.57592605964776
 42
1.0
 10
62.30129585984731
 20
22.64958758408419
 42
1.0
 10
62.40829191288045
 20
22.73076156986306
 42
1.0
 10
62.46798465171641
 20
22.81944801698443
 42
1.0
 72
     1
 10
62.46798465171641
 20
22.81944801698443
 11
62.46798465171641
 21
23.76443555540381
 72
     1
 10
62.46798465171641
 20
23.76443555540381
 11
61.542999122366
 21
23.76443555540381
 72
     1
 10
61.542999122366
 20
23.76443555540381
 11
61.542999122366
 21
23.57838102053819
 72
     1
 10
61.542999122366
 20
23.57838102053819
 11
62.25081444506503
 21
23.57838102053819
 72
     1
 10
62.25081444506503
 20
23.57838102053819
 11
62.25081444506503
 21
22.88517074951196
 72
     4
 94
        3
 73
     1
 74
     0
 95
        8
 96
        4
 40
1.0
 40
1.0
 40
1.0
 40
1.0
 40
2.0
 40
2.0
 40
2.0
 40
2.0
 10
62.25081444506503
 20
22.88517074951196
 42
1.0
 10
62.20340131844927
 20
22.82431852072672
 42
1.0
 10
62.11915581472686
 20
22.7699193864222
 42
1.0
 10
61.99818774631633
 20
22.72197657637567
 42
1.0
 72
     4
 94
        3
 73
     1
 74
     0
 95
        8
 96
        4
 40
2.0
 40
2.0
 40
2.0
 40
2.0
 40
3.0
 40
3.0
 40
3.0
 40
3.0
 10
61.99818774631633
 20
22.72197657637567
 42
1.0
 10
61.87711632504124
 20
22.67382060104595
 42
1.0
 10
61.7272546714329
 20
22.64979751959026
 42
1.0
 10
61.54839607976213
 20
22.64979751959026
 42
1.0
 72
     4
 94
        3
 73
     1
 74
     0
 95
        8
 96
        4
 40
3.0
 40
3.0
 40
3.0
 40
3.0
 40
4.0
 40
4.0
 40
4.0
 40
4.0
 10
61.54839607976213
 20
22.64979751959026
 42
1.0
 10
61.294396725781
 20
22.64979751959026
 42
1.0
 10
61.09087878658221
 20
22.73700472883775
 42
1.0
 10
60.938268592732
 20
22.91162908283867
 42
1.0
 72
     4
 94
        3
 73
     1
 74
     0
 95
        8
 96
        4
 40
4.0
 40
4.0
 40
4.0
 40
4.0
 40
5.0
 40
5.0
 40
5.0
 40
5.0
 10
60.938268592732
 20
22.91162908283867
 42
1.0
 10
60.78565839888181
 20
23.08615008397508
 42
1.0
 10
60.70945826970978
 20
23.31506698963886
 42
1.0
 10
60.70945826970978
 20
23.5983830296071
 42
1.0
 72
     1
 10
60.70945826970978
 20
23.5983830296071
 11
60.70945826970978
 21
24.08913149851924
 72
     4
 94
        3
 73
     1
 74
     0
 95
        8
 96
        4
 40
6.0
 40
6.0
 40
6.0
 40
6.0
 40
7.0
 40
7.0
 40
7.0
 40
7.0
 10
60.70945826970978
 20
24.08913149851924
 42
1.0
 10
60.70945826970978
 20
24.36397906314777
 42
1.0
 10
60.78110441328725
 20
24.58654622719533
 42
1.0
 10
60.92461632527938
 20
24.75672640802029
 42
1.0
 72
     4
 94
        3
 73
     1
 74
     0
 95
        8
 96
        4
 40
7.0
 40
7.0
 40
7.0
 40
7.0
 40
8.0
 40
8.0
 40
8.0
 40
8.0
 10
60.92461632527938
 20
24.75672640802029
 42
1.0
 10
61.06812500749449
 20
24.92701317148688
 42
1.0
 10
61.26148206819646
 20
25.01220822965239
 42
1.0
 10
61.50468750738531
 20
25.01220822965239
 42
1.0
 72
     4
 94
        3
 73
     1
 74
     0
 95
        8
 96
        4
 40
8.0
 40
8.0
 40
8.0
 40
8.0
 40
9.0
 40
9.0
 40
9.0
 40
9.0
 10
61.50468750738531
 20
25.01220822965239
 42
1.0
 10
61.73826175150824
 20
25.01220822965239
 42
1.0
 10
61.91278275264467
 20
24.95802226063113
 42
1.0
 10
62.02824728101748
 20
24.84986025809469
 42
1.0
 72
     4
 94
        3
 73
     1
 74
     0
 95
        8
 96
        4
 40
9.0
 40
9.0
 40
9.0
 40
9.0
 40
10.0
 40
10.0
 40
10.0
 40
10.0
 10
62.02824728101748
 20
24.84986025809469
 42
1.0
 10
62.14370857961327
 20
24.7415949026937
 42
1.0
 10
62.21737010404958
 20
24.59692027097532
 42
1.0
 10
62.24901545926629
 20
24.41562642743339
 42
1.0
 72
     1
 10
62.24901545926629
 20
24.41562642743339
 11
62.46607908327615
 21
24.41562642743339
 72
     4
 94
        3
 73
     1
 74
     0
 95
        8
 96
        4
 40
11.0
 40
11.0
 40
11.0
 40
11.0
 40
12.0
 40
12.0
 40
12.0
 40
12.0
 10
62.46607908327615
 20
24.41562642743339
 42
1.0
 10
62.4344337280595
 20
24.65523389502486
 42
1.0
 10
62.33929095668026
 20
24.84562925020184
 42
1.0
 10
62.18064753936157
 20
24.98659932768127
 42
1.0
 72
     4
 94
        3
 73
     1
 74
     0
 95
        8
 96
        4
 40
12.0
 40
12.0
 40
12.0
 40
12.0
 40
13.0
 40
13.0
 40
13.0
 40
13.0
 10
62.18064753936157
 20
24.98659932768127
 42
1.0
 10
62.02179095675965
 20
25.12767275802522
 42
1.0
 10
61.79657537555781
 20
25.19826599429503
 42
1.0
 10
61.50468750738531
 20
25.19826599429503
 42
1.0
 72
     4
 94
        3
 73
     1
 74
     0
 95
        8
 96
        4
 40
13.0
 40
13.0
 40
13.0
 40
13.0
 40
14.0
 40
14.0
 40
14.0
 40
14.0
 10
61.50468750738531
 20
25.19826599429503
 42
1.0
 10
61.19946388990791
 20
25.19826599429503
 42
1.0
 10
60.95414294677263
 20
25.09645373337482
 42
1.0
 10
60.76861809533791
 20
24.89272262889289
 42
1.0
 72
     4
 94
        3
 73
     1
 74
     0
 95
        8
 96
        4
 40
14.0
 40
14.0
 40
14.0
 40
14.0
 40
15.0
 40
15.0
 40
15.0
 40
15.0
 10
60.76861809533791
 20
24.89272262889289
 42
1.0
 10
60.58319659676773
 20
24.68899475418798
 42
1.0
 10
60.49048907725966
 20
24.41996724774478
 42
1.0
 10
60.49048907725966
 20
24.08542694428029
 42
1.0
 72
     1
 10
60.49048907725966
 20
24.08542694428029
 11
60.49048907725966
 21
23.5983830296071
 72
     4
 94
        3
 73
     1
 74
     0
 95
        8
 96
        4
 40
16.0
 40
16.0
 40
16.0
 40
16.0
 40
17.0
 40
17.0
 40
17.0
 40
17.0
 10
60.49048907725966
 20
23.5983830296071
 42
1.0
 10
60.49048907725966
 20
23.2567533655893
 42
1.0
 10
60.58774735258527
 20
22.9824322546146
 42
1.0
 10
60.78227036279058
 20
22.7757394446077
 42
1.0
 72
     4
 94
        3
 73
     1
 74
     0
 95
        8
 96
        4
 40
17.0
 40
17.0
 40
17.0
 40
17.0
 40
18.0
 40
18.0
 40
18.0
 40
18.0
 10
60.78227036279058
 20
22.7757394446077
 42
1.0
 10
60.97689672586041
 20
22.56894005195917
 42
1.0
 10
61.23227196485088
 20
22.46554197052342
 42
1.0
 10
61.54839607976213
 20
22.46554197052342
 42
1.0
 72
     4
 94
        3
 73
     1
 74
     0
 95
        8
 96
        4
 40
18.0
 40
18.0
 40
18.0
 40
18.0
 40
19.0
 40
19.0
 40
19.0
 40
19.0
 10
61.54839607976213
 20
22.46554197052342
 42
1.0
 10
61.79287405109583
 20
22.46554197052342
 42
1.0
 10
61.99236768813091
 20
22.50237111785311
 42
1.0
 10
62.14688668019844
 20
22.57592605964776
 42
1.0
 97
        0
 75
     0
 76
     1
 98
        1
 10
0.0
 20
0.0
  0
LINE
  5
98
330
1F
100
AcDbEntity
  8
RIQUADRO
100
AcDbLine
 10
200.0917715947
 20
149.1494282774
 30
0.0
 11
205.0917715947
 21
149.1494282774
 31
0.0
  0
LINE
  5
99
330
1F
100
AcDbEntity
  8
RIQUADRO
100
AcDbLine
 10
56.6072614286
 20
282.6494282774
 30
0.0
 11
56.6072614286
 21
288.6494282774
 31
0.0
  0
LINE
  5
9A
330
1F
100
AcDbEntity
  8
RIQUADRO
100
AcDbLine
 10
105.0434171846
 20
282.6494282774
 30
0.0
 11
105.0434171846
 21
288.6494282774
 31
0.0
  0
LINE
  5
9B
330
1F
100
AcDbEntity
  8
RIQUADRO
100
AcDbLine
 10
153.2664538338
 20
282.6494282774
 30
0.0
 11
153.2664538338
 21
288.6494282774
 31
0.0
  0
LINE
  5
9C
330
1F
100
AcDbEntity
  8
RIQUADRO
100
AcDbLine
 10
199.8803741219
 20
282.6494282774
 30
0.0
 11
199.8803741219
 21
288.6494282774
 31
0.0
  0
LINE
  5
9D
330
1F
100
AcDbEntity
  8
RIQUADRO
100
AcDbLine
 10
9.0917715947
 20
282.6494282774
 30
0.0
 11
205.0917715947
 21
282.6494282774
 31
0.0
  0
LINE
  5
9E
330
1F
100
AcDbEntity
  8
RIQUADRO
100
AcDbLine
 10
199.8803741219
 20
15.6494351702
 30
0.0
 11
199.8803741219
 21
10.6494282774
 31
0.0
  0
LINE
  5
9F
330
1F
100
AcDbEntity
  8
RIQUADRO
100
AcDbLine
 10
71.5685815124
 20
41.6494282774
 30
0.0
 11
71.5685815124
 21
20.6494282774
 31
0.0
  0
LINE
  5
A0
330
1F
100
AcDbEntity
  8
RIQUADRO
100
AcDbLine
 10
9.0917715947
 20
15.6494351702
 30
0.0
 11
199.8803741219
 21
15.6494351702
 31
0.0
  0
LINE
  5
A1
330
1F
100
AcDbEntity
  8
RIQUADRO
100
AcDbLine
 10
105.1381156977
 20
41.6494282774
 30
0.0
 11
105.1381156977
 21
20.6494282774
 31
0.0
  0
LINE
  5
A2
330
1F
100
AcDbEntity
  8
RIQUADRO
  6
Continuous
 62
     7
370
    35
100
AcDbLine
 10
209.0917715947
 20
5.6494282774
 30
0.0
 11
199.0917715947
 21
5.6494282774
 31
0.0
  0
LINE
  5
A3
330
1F
100
AcDbEntity
  8
RIQUADRO
  6
Continuous
 62
     7
370
    35
100
AcDbLine
 10
209.0917715947
 20
5.6494282774
 30
0.0
 11
209.0917715947
 21
15.6494282774
 31
0.0
  0
LINE
  5
A4
330
1F
100
AcDbEntity
  8
CONTORNO
  6
Continuous
 62
     7
370
    35
100
AcDbLine
 10
209.0917715947
 20
292.6494282774
 30
0.0
 11
209.0917715947
 21
282.6494282774
 31
0.0
  0
LINE
  5
A5
330
1F
100
AcDbEntity
  8
CONTORNO
  6
Continuous
 62
     7
370
    35
100
AcDbLine
 10
209.0917715947
 20
292.6494282774
 30
0.0
 11
199.0917715947
 21
292.6494282774
 31
0.0
  0
LINE
  5
A6
330
1F
100
AcDbEntity
  8
RIQUADRO
100
AcDbLine
 10
9.0917715947
 20
282.6494282774
 30
0.0
 11
9.0917715947
 21
288.6494282774
 31
0.0
  0
LINE
  5
A7
330
1F
100
AcDbEntity
  8
RIQUADRO
100
AcDbLine
 10
4.0917715947
 20
10.6494282774
 30
0.0
 11
205.0917715947
 21
10.6494282774
 31
0.0
  0
LINE
  5
A8
330
1F
100
AcDbEntity
  8
RIQUADRO
100
AcDbLine
 10
205.0917715947
 20
288.6494282774
 30
0.0
 11
205.0917715947
 21
10.6494282774
 31
0.0
  0
LINE
  5
A9
330
1F
100
AcDbEntity
  8
RIQUADRO
100
AcDbLine
 10
4.0917715947
 20
288.6494282774
 30
0.0
 11
205.0917715947
 21
288.6494282774
 31
0.0
  0
LINE
  5
AA
330
1F
100
AcDbEntity
  8
CONTORNO
100
AcDbLine
 10
9.0917715947
 20
282.6494282774
 30
0.0
 11
9.0917715947
 21
15.6494351702
 31
0.0
  0
LINE
  5
AB
330
1F
100
AcDbEntity
  8
CARTIGLIO
100
AcDbLine
 10
20.0917715947
 20
15.6494282774
 30
0.0
 11
205.0917715947
 21
15.6494282774
 31
0.0
  0
LINE
  5
AC
330
1F
100
AcDbEntity
  8
RIQUADRO
100
AcDbLine
 10
200.0917715947
 20
215.8994282774
 30
0.0
 11
199.8803741219
 21
215.8994282774
 31
0.0
  0
LINE
  5
AD
330
1F
100
AcDbEntity
  8
RIQUADRO
100
AcDbLine
 10
9.0917715947
 20
282.6494282774
 30
0.0
 11
4.0917715947
 21
282.6494282774
 31
0.0
  0
LINE
  5
AE
330
1F
100
AcDbEntity
  8
CARTIGLIO
100
AcDbLine
 10
199.8803741219
 20
75.6494282774
 30
0.0
 11
20.0917715947
 21
75.6494282774
 31
0.0
  0
LINE
  5
AF
330
1F
100
AcDbEntity
  8
CARTIGLIO
100
AcDbLine
 10
20.0917715947
 20
75.6494282774
 30
0.0
 11
20.0917715947
 21
15.6494282774
 31
0.0
  0
LINE
  5
B0
330
1F
100
AcDbEntity
  8
CARTIGLIO
100
AcDbLine
 10
199.8803741219
 20
58.6494282774
 30
0.0
 11
20.0917715947
 21
58.6494282774
 31
0.0
  0
LINE
  5
B1
330
1F
100
AcDbEntity
  8
CARTIGLIO
100
AcDbLine
 10
130.0659876174
 20
20.6494282774
 30
0.0
 11
20.0917715947
 21
20.6494282774
 31
0.0
  0
LINE
  5
B2
330
1F
100
AcDbEntity
  8
CARTIGLIO
100
AcDbLine
 10
199.8803741219
 20
26.1494282774
 30
0.0
 11
130.0659876174
 21
26.1494282774
 31
0.0
  0
LINE
  5
B3
330
1F
100
AcDbEntity
  8
CARTIGLIO
100
AcDbLine
 10
130.0659876174
 20
75.6494282774
 30
0.0
 11
130.0659876174
 21
15.6494351702
 31
0.0
  0
LINE
  5
B4
330
1F
100
AcDbEntity
  8
CARTIGLIO
100
AcDbLine
 10
199.8803741219
 20
41.6494282774
 30
0.0
 11
20.0917715947
 21
41.6494282774
 31
0.0
  0
LINE
  5
B5
330
1F
100
AcDbEntity
  8
CARTIGLIO
100
AcDbLine
 10
190.3914376631
 20
41.6494282774
 30
0.0
 11
190.3914376631
 21
26.1494282774
 31
0.0
  0
LINE
  5
B6
330
1F
100
AcDbEntity
  8
RIQUADRO
100
AcDbLine
 10
106.3014163872
 20
75.6494282774
 30
0.0
 11
106.3014163872
 21
58.6494282774
 31
0.0
  0
LINE
  5
B7
330
1F
100
AcDbEntity
  8
CARTIGLIO
100
AcDbLine
 10
199.8803741219
 20
75.6494282774
 30
0.0
 11
199.8803741219
 21
15.6494351702
 31
0.0
  0
LINE
  5
B8
330
1F
100
AcDbEntity
  8
RIQUADRO
100
AcDbLine
 10
9.0917715947
 20
15.6494351702
 30
0.0
 11
9.0917715947
 21
10.6494282774
 31
0.0
  0
LINE
  5
B9
330
1F
100
AcDbEntity
  8
PROIEZ
  6
CENTERX2
100
AcDbLine
 10
118.2014738576
 20
66.9422976321
 30
0.0
 11
129.5857357586
 21
66.9422976321
 31
0.0
  0
LINE
  5
BA
330
1F
100
AcDbEntity
  8
PROIEZ
  6
CENTERX2
100
AcDbLine
 10
123.8936048081
 20
72.6344285826
 30
0.0
 11
123.8936048081
 21
61.2501666817
 31
0.0
  0
LINE
  5
BB
330
1F
100
AcDbEntity
  8
CONTORNO
  6
Continuous
 62
     7
370
    35
100
AcDbLine
 10
1.0759991219
 20
5.6494282774
 30
0.0
 11
1.0759991219
 21
15.6494282774
 31
0.0
  0
LINE
  5
BC
330
1F
100
AcDbEntity
  8
CONTORNO
  6
Continuous
 62
     7
370
    35
100
AcDbLine
 10
1.0759991219
 20
5.6494282774
 30
0.0
 11
11.0759991219
 21
5.6494282774
 31
0.0
  0
LINE
  5
BD
330
1F
100
AcDbEntity
  8
PROIEZ
  6
Continuous
 62
    16
370
    25
100
AcDbLine
 10
114.8566080693
 20
62.7455701356
 30
0.0
 11
114.8566080693
 21
71.1390251287
 31
0.0
  0
LINE
  5
BE
330
1F
100
AcDbEntity
  8
PROIEZ
  6
CENTERX2
100
AcDbLine
 10
116.1844481322
 20
66.9422976321
 30
0.0
 11
107.8566080693
 21
66.9422976321
 31
0.0
  0
LINE
  5
BF
330
1F
100
AcDbEntity
  8
PROIEZ
  6
Continuous
 62
    16
370
    25
100
AcDbLine
 10
107.8566080693
 20
64.7455701356
 30
0.0
 11
107.8566080693
 21
69.1390251287
 31
0.0
  0
LINE
  5
C0
330
1F
100
AcDbEntity
  8
PROIEZ
100
AcDbLine
 10
107.8566080693
 20
64.7455701356
 30
0.0
 11
114.8566080693
 21
62.7455701356
 31
0.0
  0
LINE
  5
C1
330
1F
100
AcDbEntity
  8
PROIEZ
  6
Continuous
 62
    16
370
    25
100
AcDbLine
 10
107.8566080693
 20
69.1390251287
 30
0.0
 11
114.8566080693
 21
71.1390251287
 31
0.0
  0
LINE
  5
C2
330
1F
100
AcDbEntity
  8
RIQUADRO
100
AcDbLine
 10
9.0917715947
 20
15.6494351702
 30
0.0
 11
4.0917715947
 21
15.6494351702
 31
0.0
  0
LINE
  5
C3
330
1F
100
AcDbEntity
  8
RIQUADRO
100
AcDbLine
 10
200.0917715947
 20
149.1494282774
 30
0.0
 11
199.8803741219
 21
149.1494282774
 31
0.0
  0
LINE
  5
C4
330
1F
100
AcDbEntity
  8
RIQUADRO
100
AcDbLine
 10
200.0917715947
 20
82.3994282774
 30
0.0
 11
199.8803741219
 21
82.3994282774
 31
0.0
  0
LINE
  5
C5
330
1F
100
AcDbEntity
  8
RIQUADRO
100
AcDbLine
 10
56.6072614286
 20
15.6494351702
 30
0.0
 11
56.6072614286
 21
10.6494282774
 31
0.0
  0
LINE
  5
C6
330
1F
100
AcDbEntity
  8
RIQUADRO
100
AcDbLine
 10
104.5917715947
 20
15.6494351702
 30
0.0
 11
104.5917715947
 21
10.6494282774
 31
0.0
  0
LINE
  5
C7
330
1F
100
AcDbEntity
  8
RIQUADRO
100
AcDbLine
 10
153.2664538338
 20
15.6494351702
 30
0.0
 11
153.2664538338
 21
10.6494282774
 31
0.0
  0
LINE
  5
C8
330
1F
100
AcDbEntity
  8
RIQUADRO
100
AcDbLine
 10
9.0917715947
 20
215.8994282774
 30
0.0
 11
4.0917715947
 21
215.8994282774
 31
0.0
  0
LINE
  5
C9
330
1F
100
AcDbEntity
  8
RIQUADRO
100
AcDbLine
 10
9.0917715947
 20
149.1494282774
 30
0.0
 11
4.0917715947
 21
149.1494282774
 31
0.0
  0
LINE
  5
CA
330
1F
100
AcDbEntity
  8
RIQUADRO
100
AcDbLine
 10
9.0917715947
 20
82.3994282774
 30
0.0
 11
4.0917715947
 21
82.3994282774
 31
0.0
  0
LINE
  5
CB
330
1F
100
AcDbEntity
  8
RIQUADRO
100
AcDbLine
 10
20.0917715947
 20
51.6494282774
 30
0.0
 11
15.4073987498
 21
51.6494282774
 31
0.0
  0
LINE
  5
CC
330
1F
100
AcDbEntity
  8
RIQUADRO
100
AcDbLine
 10
15.4073987498
 20
51.6494282774
 30
0.0
 11
15.4073987498
 21
15.6494351702
 31
0.0
  0
LINE
  5
CD
330
1F
100
AcDbEntity
  8
CARTIGLIO
100
AcDbLine
 10
130.0659876174
 20
68.1004373158
 30
0.0
 11
199.8803741219
 21
68.1004373158
 31
0.0
  0
LINE
  5
CE
330
1F
100
AcDbEntity
  8
CARTIGLIO
100
AcDbLine
 10
106.3014163872
 20
67.1494282774
 30
0.0
 11
20.0917715947
 21
67.1494282774
 31
0.0
  0
LINE
  5
CF
330
1F
100
AcDbEntity
  8
CARTIGLIO
100
AcDbLine
 10
96.0917715947
 20
58.6494282774
 30
0.0
 11
96.0917715947
 21
41.6494282774
 31
0.0
  0
LINE
  5
D0
330
1F
100
AcDbEntity
  8
CARTIGLIO
100
AcDbLine
 10
96.0917715947
 20
50.1494282774
 30
0.0
 11
130.0659876174
 21
50.1494282774
 31
0.0
  0
LINE
  5
D1
330
1F
100
AcDbEntity
  8
CARTIGLIO
100
AcDbLine
 10
117.1984737673
 20
58.6494282774
 30
0.0
 11
117.1984737673
 21
41.6494282774
 31
0.0
  0
LINE
  5
D2
330
1F
100
AcDbEntity
  8
CARTIGLIO
100
AcDbLine
 10
96.0917715947
 20
51.6494282774
 30
0.0
 11
20.0917715947
 21
51.6494282774
 31
0.0
  0
LINE
  5
D3
330
1F
100
AcDbEntity
  8
CARTIGLIO
100
AcDbLine
 10
96.0917715947
 20
45.6494282774
 30
0.0
 11
20.0917715947
 21
45.6494282774
 31
0.0
  0
LINE
  5
D4
330
1F
100
AcDbEntity
  8
CARTIGLIO
100
AcDbLine
 10
29.5917715947
 20
51.6494282774
 30
0.0
 11
29.5917715947
 21
41.6494282774
 31
0.0
  0
LINE
  5
D5
330
1F
100
AcDbEntity
  8
CARTIGLIO
100
AcDbLine
 10
39.0917715947
 20
51.6494282774
 30
0.0
 11
39.0917715947
 21
41.6494282774
 31
0.0
  0
LINE
  5
D6
330
1F
100
AcDbEntity
  8
CARTIGLIO
100
AcDbLine
 10
48.5917715947
 20
51.6494282774
 30
0.0
 11
48.5917715947
 21
41.6494282774
 31
0.0
  0
LINE
  5
D7
330
1F
100
AcDbEntity
  8
CARTIGLIO
100
AcDbLine
 10
58.0917715947
 20
51.6494282774
 30
0.0
 11
58.0917715947
 21
41.6494282774
 31
0.0
  0
LINE
  5
D8
330
1F
100
AcDbEntity
  8
CARTIGLIO
100
AcDbLine
 10
67.5917715947
 20
51.6494282774
 30
0.0
 11
67.5917715947
 21
41.6494282774
 31
0.0
  0
LINE
  5
D9
330
1F
100
AcDbEntity
  8
CARTIGLIO
100
AcDbLine
 10
77.0917715947
 20
51.6494282774
 30
0.0
 11
77.0917715947
 21
41.6494282774
 31
0.0
  0
LINE
  5
DA
330
1F
100
AcDbEntity
  8
CARTIGLIO
100
AcDbLine
 10
86.5917715947
 20
51.6494282774
 30
0.0
 11
86.5917715947
 21
20.6494282774
 31
0.0
  0
LINE
  5
DB
330
1F
100
AcDbEntity
  8
CARTIGLIO
100
AcDbLine
 10
20.0917715947
 20
55.1494282774
 30
0.0
 11
96.0917715947
 21
55.1494282774
 31
0.0
  0
LINE
  5
DC
330
1F
100
AcDbEntity
  8
CARTIGLIO
100
AcDbLine
 10
80.0783417743
 20
58.6494282774
 30
0.0
 11
80.0783417743
 21
51.6494282774
 31
0.0
  0
LINE
  5
DD
330
1F
100
AcDbEntity
  8
CARTIGLIO
100
AcDbLine
 10
88.8664874481
 20
58.6494282774
 30
0.0
 11
88.8664874481
 21
51.6494282774
 31
0.0
  0
LINE
  5
DE
330
1F
100
AcDbEntity
  8
CARTIGLIO
100
AcDbLine
 10
130.0659876174
 20
26.1494282774
 30
0.0
 11
71.5685815124
 21
26.1494282774
 31
0.0
  0
LINE
  5
DF
330
1F
100
AcDbEntity
  8
CARTIGLIO
100
AcDbLine
 10
130.0659876174
 20
31.6494282774
 30
0.0
 11
71.5685815124
 21
31.6494282774
 31
0.0
  0
LINE
  5
E0
330
1F
100
AcDbEntity
  8
CARTIGLIO
100
AcDbLine
 10
130.0659876174
 20
37.1494282774
 30
0.0
 11
71.5685815124
 21
37.1494282774
 31
0.0
  0
LINE
  5
E1
330
1F
100
AcDbEntity
  8
CARTIGLIO
100
AcDbLine
 10
171.526925038
 20
68.1004373158
 30
0.0
 11
171.526925038
 21
75.6494282774
 31
0.0
  0
LINE
  5
E2
330
1F
100
AcDbEntity
  8
CONTORNO
  6
Continuous
 62
     7
370
    35
100
AcDbLine
 10
1.0759991219
 20
292.6494282774
 30
0.0
 11
11.0759991219
 21
292.6494282774
 31
0.0
  0
LINE
  5
E3
330
1F
100
AcDbEntity
  8
CONTORNO
  6
Continuous
 62
     7
370
    35
100
AcDbLine
 10
1.0759991219
 20
292.6494282774
 30
0.0
 11
1.0759991219
 21
282.6494282774
 31
0.0
  0
LINE
  5
E4
330
1F
100
AcDbEntity
  8
CONTORNO
100
AcDbLine
 10
9.0917715947
 20
282.6494282774
 30
0.0
 11
199.8803741219
 21
282.6494282774
 31
0.0
  0
LINE
  5
E5
330
1F
100
AcDbEntity
  8
RIQUADRO
100
AcDbLine
 10
200.0917715947
 20
82.3994282774
 30
0.0
 11
205.0917715947
 21
82.3994282774
 31
0.0
  0
LINE
  5
E6
330
1F
100
AcDbEntity
  8
RIQUADRO
100
AcDbLine
 10
200.0917715947
 20
215.8994282774
 30
0.0
 11
205.0917715947
 21
215.8994282774
 31
0.0
  0
LINE
  5
E7
330
1F
100
AcDbEntity
  8
CONTORNO
100
AcDbLine
 10
199.8803741219
 20
282.6494282774
 30
0.0
 11
199.8803741219
 21
15.6494351702
 31
0.0
  0
LINE
  5
E8
330
1F
100
AcDbEntity
  8
CONTORNO
100
AcDbLine
 10
199.8803741219
 20
15.6494351702
 30
0.0
 11
9.0917715947
 21
15.6494351702
 31
0.0
  0
LINE
  5
E9
330
1F
100
AcDbEntity
  8
RIQUADRO
100
AcDbLine
 10
4.0917715947
 20
288.6494282774
 30
0.0
 11
4.0917715947
 21
10.6494282774
 31
0.0
  0
CIRCLE
  5
EA
330
1F
100
AcDbEntity
  8
PROIEZ
100
AcDbCircle
 10
123.8936048081
 20
66.9422976321
 30
0.0
 40
4.0
  0
CIRCLE
  5
EB
330
1F
100
AcDbEntity
  8
PROIEZ
100
AcDbCircle
 10
123.8936048081
 20
66.9422976321
 30
0.0
 40
1.999999999999991
  0
MTEXT
  5
ED
330
1F
100
AcDbEntity
  8
CARTIGLIO
100
AcDbMText
 10
130.6394191004
 20
74.5254647666
 30
0.0
 40
2.0
 41
0.0
 71
     1
 72
     1
  1
Mass
  7
SLDTEXTSTYLE0
 73
     1
 44
1.0
  0
MTEXT
  5
EE
330
1F
100
AcDbEntity
  8
CARTIGLIO
100
AcDbMText
 10
131.9238267175
 20
40.7795742388
 30
0.0
 40
2.0
 41
0.0
 71
     1
 72
     1
  1
Drawing No.
  7
SLDTEXTSTYLE0
 73
     1
 44
1.0
  0
MTEXT
  5
EF
330
1F
100
AcDbEntity
  8
CARTIGLIO
100
AcDbMText
 10
175.3198896767
 20
74.6508508118
 30
0.0
 40
2.0
 41
0.0
 71
     1
 72
     1
  1
Scale
  7
SLDTEXTSTYLE0
 73
     1
 44
1.0
  0
MTEXT
  5
F0
330
1F
100
AcDbEntity
  8
CARTIGLIO
100
AcDbMText
 10
192.0228404747
 20
40.458464005
 30
0.0
 40
2.0
 41
0.0
 71
     1
 72
     1
  1
Sheet
  7
SLDTEXTSTYLE0
 73
     1
 44
1.0
  0
MTEXT
  5
F2
330
1F
100
AcDbEntity
  8
CARTIGLIO
100
AcDbMText
 10
184.7137585365
 20
73.8234400606
 30
0.0
 40
3.5
 41
0.0
 71
     1
 72
     1
  1
1:1
  7
SLDTEXTSTYLE1
 73
     1
 44
1.0
  0
MTEXT
  5
F3
330
1F
100
AcDbEntity
  8
CARTIGLIO
100
AcDbMText
 10
191.5362779805
 20
34.114364645
 30
0.0
 40
3.5
 41
0.0
 71
     1
 72
     1
  1
1/1
  7
SLDTEXTSTYLE1
 73
     1
 44
1.0
  0
MTEXT
  5
F4
330
1F
100
AcDbEntity
  8
CARTIGLIO
100
AcDbMText
 10
131.1648567563
 20
56.6568828428
 30
0.0
 40
2.0
 41
0.0
 71
     1
 72
     1
  1
Description
  7
SLDTEXTSTYLE1
 73
     1
 44
1.0
  0
MTEXT
  5
F5
330
1F
100
AcDbEntity
  8
CARTIGLIO
100
AcDbMText
 10
20.6833429915
 20
74.8467236945
 30
0.0
 40
2.0
 41
0.0
 71
     1
 72
     1
  1
Material
  7
SLDTEXTSTYLE1
 73
     1
 44
1.0
  0
MTEXT
  5
F6
330
1F
100
AcDbEntity
  8
CARTIGLIO
100
AcDbMText
 10
21.1983559672
 20
66.1743593613
 30
0.0
 40
2.0
 41
0.0
 71
     1
 72
     1
  1
Surface treatment
  7
SLDTEXTSTYLE1
 73
     1
 44
1.0
  0
INSERT
  5
FC
330
1F
100
AcDbEntity
  8
CARTIGLIO
100
AcDbBlockReference
  2
SW_NOTE_0
 10
96.744477682
 20
45.9941839755
 30
0.0
  0
INSERT
  5
102
330
1F
100
AcDbEntity
  8
CARTIGLIO
100
AcDbBlockReference
  2
SW_NOTE_0_1
 10
96.6393693109
 20
53.7100550769
 30
0.0
  0
MTEXT
  5
104
330
1F
100
AcDbEntity
  8
CARTIGLIO
100
AcDbMText
 10
119.7412175932
 20
47.314197211
 30
0.0
 40
2.5
 41
0.0
 71
     1
 72
     1
  1
R 0.5
  7
SLDTEXTSTYLE2
 73
     1
 44
1.0
  0
MTEXT
  5
105
330
1F
100
AcDbEntity
  8
CARTIGLIO
100
AcDbMText
 10
117.9100544066
 20
54.8749241667
 30
0.0
 40
2.5
 41
0.0
 71
     1
 72
     1
  1
0.5x45°
  7
SLDTEXTSTYLE1
 73
     1
 44
1.0
  0
MTEXT
  5
106
330
1F
100
AcDbEntity
  8
CARTIGLIO
100
AcDbMText
 10
21.651701234
 20
57.3619796497
 30
0.0
 40
1.5
 41
0.0
 71
     1
 72
     1
  1
Geometrical tolerance (ISO 2768-2)
  7
SLDTEXTSTYLE1
 73
     1
 44
1.0
  0
MTEXT
  5
107
330
1F
100
AcDbEntity
  8
CARTIGLIO
100
AcDbMText
 10
21.8273424041
 20
54.2772408043
 30
0.0
 40
1.5
 41
0.0
 71
     1
 72
     1
  1
Linear tolerance (ISO 2768-2)
  7
SLDTEXTSTYLE1
 73
     1
 44
1.0
  0
INSERT
  5
10D
330
1F
100
AcDbEntity
  8
CARTIGLIO
100
AcDbBlockReference
  2
SW_NOTE_0_2
 10
22.6701998524
 20
48.7259084616
 30
0.0
  0
INSERT
  5
113
330
1F
100
AcDbEntity
  8
CARTIGLIO
100
AcDbBlockReference
  2
SW_NOTE_0_3
 10
31.6684610402
 20
48.3867685771
 30
0.0
  0
INSERT
  5
119
330
1F
100
AcDbEntity
  8
CARTIGLIO
100
AcDbBlockReference
  2
SW_NOTE_0_4
 10
41.4864037185
 20
48.7949258522
 30
0.0
  0
INSERT
  5
11F
330
1F
100
AcDbEntity
  8
CARTIGLIO
100
AcDbBlockReference
  2
SW_NOTE_0_5
 10
50.3183552873
 20
48.5765035486
 30
0.0
  0
INSERT
  5
125
330
1F
100
AcDbEntity
  8
CARTIGLIO
100
AcDbBlockReference
  2
SW_NOTE_0_6
 10
59.6941301757
 20
48.4707714807
 30
0.0
  0
INSERT
  5
12B
330
1F
100
AcDbEntity
  8
CARTIGLIO
100
AcDbBlockReference
  2
SW_NOTE_0_7
 10
68.4290297565
 20
48.4211349626
 30
0.0
  0
INSERT
  5
131
330
1F
100
AcDbEntity
  8
CARTIGLIO
100
AcDbBlockReference
  2
SW_NOTE_0_8
 10
78.3275272129
 20
48.6064573664
 30
0.0
  0
INSERT
  5
137
330
1F
100
AcDbEntity
  8
CARTIGLIO
100
AcDbBlockReference
  2
SW_NOTE_0_9
 10
87.5268202113
 20
48.5346455831
 30
0.0
  0
MTEXT
  5
138
330
1F
100
AcDbEntity
  8
CARTIGLIO
100
AcDbMText
 10
21.7136391915
 20
44.5848363517
 30
0.0
 40
2.0
 41
0.0
 71
     1
 72
     1
  1
±0.1
  7
SLDTEXTSTYLE1
 73
     1
 44
1.0
  0
MTEXT
  5
139
330
1F
100
AcDbEntity
  8
CARTIGLIO
100
AcDbMText
 10
31.6079587382
 20
44.4591371684
 30
0.0
 40
2.0
 41
0.0
 71
     1
 72
     1
  1
±0.1
  7
SLDTEXTSTYLE1
 73
     1
 44
1.0
  0
MTEXT
  5
13A
330
1F
100
AcDbEntity
  8
CARTIGLIO
100
AcDbMText
 10
41.8068869963
 20
44.6192710193
 30
0.0
 40
2.0
 41
0.0
 71
     1
 72
     1
  1
±0.2
  7
SLDTEXTSTYLE1
 73
     1
 44
1.0
  0
MTEXT
  5
13B
330
1F
100
AcDbEntity
  8
CARTIGLIO
100
AcDbMText
 10
50.8467609012
 20
44.5076964617
 30
0.0
 40
2.0
 41
0.0
 71
     1
 72
     1
  1
±0.3
  7
SLDTEXTSTYLE1
 73
     1
 44
1.0
  0
MTEXT
  5
13C
330
1F
100
AcDbEntity
  8
CARTIGLIO
100
AcDbMText
 10
60.3612263582
 20
44.6197191143
 30
0.0
 40
2.0
 41
0.0
 71
     1
 72
     1
  1
±0.5
  7
SLDTEXTSTYLE1
 73
     1
 44
1.0
  0
MTEXT
  5
13D
330
1F
100
AcDbEntity
  8
CARTIGLIO
100
AcDbMText
 10
69.7126820867
 20
44.7764064604
 30
0.0
 40
2.0
 41
0.0
 71
     1
 72
     1
  1
±0.8
  7
SLDTEXTSTYLE1
 73
     1
 44
1.0
  0
MTEXT
  5
13E
330
1F
100
AcDbEntity
  8
CARTIGLIO
100
AcDbMText
 10
79.5297217215
 20
44.686857116
 30
0.0
 40
2.0
 41
0.0
 71
     1
 72
     1
  1
±1.2
  7
SLDTEXTSTYLE1
 73
     1
 44
1.0
  0
MTEXT
  5
13F
330
1F
100
AcDbEntity
  8
CARTIGLIO
100
AcDbMText
 10
89.8897599461
 20
44.6498475368
 30
0.0
 40
2.0
 41
0.0
 71
     1
 72
     1
  1
±2
  7
SLDTEXTSTYLE1
 73
     1
 44
1.0
  0
MTEXT
  5
140
330
1F
100
AcDbEntity
  8
CARTIGLIO
100
AcDbMText
 10
80.9192725506
 20
57.5459287807
 30
0.0
 40
1.5
 41
0.0
 71
     1
 72
     1
  1
Class
  7
SLDTEXTSTYLE1
 73
     1
 44
1.0
  0
MTEXT
  5
141
330
1F
100
AcDbEntity
  8
CARTIGLIO
100
AcDbMText
 10
80.7262815812
 20
53.8930514393
 30
0.0
 40
1.5
 41
0.0
 71
     1
 72
     1
  1
Class
  7
SLDTEXTSTYLE1
 73
     1
 44
1.0
  0
MTEXT
  5
142
330
1F
100
AcDbEntity
  8
CARTIGLIO
100
AcDbMText
 10
90.7165129289
 20
54.1526123472
 30
0.0
 40
2.0
 41
0.0
 71
     1
 72
     1
  1
m
  7
SLDTEXTSTYLE1
 73
     1
 44
1.0
  0
MTEXT
  5
143
330
1F
100
AcDbEntity
  8
CARTIGLIO
100
AcDbMText
 10
90.9932353885
 20
57.9728501047
 30
0.0
 40
2.0
 41
0.0
 71
     1
 72
     1
  1
K
  7
SLDTEXTSTYLE1
 73
     1
 44
1.0
  0
MTEXT
  5
144
330
1F
100
AcDbEntity
  8
CARTIGLIO
100
AcDbMText
 10
72.9056156186
 20
35.2406080979
 30
0.0
 40
2.0
 41
0.0
 71
     1
 72
     1
  1
Designed
  7
SLDTEXTSTYLE1
 73
     1
 44
1.0
  0
MTEXT
  5
145
330
1F
100
AcDbEntity
  8
CARTIGLIO
100
AcDbMText
 10
73.0471112215
 20
29.7875631469
 30
0.0
 40
2.0
 41
0.0
 71
     1
 72
     1
  1
Drawn
  7
SLDTEXTSTYLE1
 73
     1
 44
1.0
  0
MTEXT
  5
146
330
1F
100
AcDbEntity
  8
CARTIGLIO
100
AcDbMText
 10
73.0471112215
 20
24.2927946792
 30
0.0
 40
2.0
 41
0.0
 71
     1
 72
     1
  1
Checked
  7
SLDTEXTSTYLE1
 73
     1
 44
1.0
  0
MTEXT
  5
147
330
1F
100
AcDbEntity
  8
CARTIGLIO
100
AcDbMText
 10
113.1567937119
 20
40.7795742388
 30
0.0
 40
2.0
 41
0.0
 71
     1
 72
     1
  1
Name
  7
SLDTEXTSTYLE1
 73
     1
 44
1.0
  0
MTEXT
  5
148
330
1F
100
AcDbEntity
  8
CARTIGLIO
100
AcDbMText
 10
92.9339190942
 20
40.6594302398
 30
0.0
 40
2.0
 41
0.0
 71
     1
 72
     1
  1
Date
  7
SLDTEXTSTYLE1
 73
     1
 44
1.0
  0
MTEXT
  5
149
330
1F
100
AcDbEntity
  8
RIQUADRO
100
AcDbMText
 10
200.8912127049
 20
253.6561299891
 30
0.0
 40
3.5
 41
0.0
 71
     1
 72
     1
  1
D
  7
SLDTEXTSTYLE1
 73
     1
 44
1.0
  0
MTEXT
  5
14A
330
1F
100
AcDbEntity
  8
RIQUADRO
100
AcDbMText
 10
200.8627138527
 20
185.5617677694
 30
0.0
 40
3.5
 41
0.0
 71
     1
 72
     1
  1
C
  7
SLDTEXTSTYLE1
 73
     1
 44
1.0
  0
MTEXT
  5
14B
330
1F
100
AcDbEntity
  8
RIQUADRO
100
AcDbMText
 10
201.2834620231
 20
119.40837709
 30
0.0
 40
3.5
 41
0.0
 71
     1
 72
     1
  1
B
  7
SLDTEXTSTYLE1
 73
     1
 44
1.0
  0
MTEXT
  5
14C
330
1F
100
AcDbEntity
  8
RIQUADRO
100
AcDbMText
 10
200.8684446604
 20
52.6297159955
 30
0.0
 40
3.5
 41
0.0
 71
     1
 72
     1
  1
A
  7
SLDTEXTSTYLE1
 73
     1
 44
1.0
  0
MTEXT
  5
14D
330
1F
100
AcDbEntity
  8
RIQUADRO
100
AcDbMText
 10
173.8111001917
 20
287.6260340383
 30
0.0
 40
3.5
 41
0.0
 71
     1
 72
     1
  1
4
  7
SLDTEXTSTYLE1
 73
     1
 44
1.0
  0
MTEXT
  5
14E
330
1F
100
AcDbEntity
  8
RIQUADRO
100
AcDbMText
 10
174.4499772594
 20
15.3915817225
 30
0.0
 40
3.5
 41
0.0
 71
     1
 72
     1
  1
4
  7
SLDTEXTSTYLE1
 73
     1
 44
1.0
  0
MTEXT
  5
14F
330
1F
100
AcDbEntity
  8
RIQUADRO
100
AcDbMText
 10
126.6784607441
 20
15.1123401602
 30
0.0
 40
3.5
 41
0.0
 71
     1
 72
     1
  1
3
  7
SLDTEXTSTYLE1
 73
     1
 44
1.0
  0
MTEXT
  5
150
330
1F
100
AcDbEntity
  8
RIQUADRO
100
AcDbMText
 10
79.2999321612
 20
15.3192862766
 30
0.0
 40
3.5
 41
0.0
 71
     1
 72
     1
  1
2
  7
SLDTEXTSTYLE1
 73
     1
 44
1.0
  0
MTEXT
  5
151
330
1F
100
AcDbEntity
  8
RIQUADRO
100
AcDbMText
 10
32.3103418641
 20
15.164136588
 30
0.0
 40
3.5
 41
0.0
 71
     1
 72
     1
  1
1
  7
SLDTEXTSTYLE1
 73
     1
 44
1.0
  0
MTEXT
  5
152
330
1F
100
AcDbEntity
  8
RIQUADRO
100
AcDbMText
 10
4.8143308415
 20
56.2998207148
 30
0.0
 40
3.5
 41
0.0
 71
     1
 72
     1
  1
A
  7
SLDTEXTSTYLE1
 73
     1
 44
1.0
  0
MTEXT
  5
153
330
1F
100
AcDbEntity
  8
RIQUADRO
100
AcDbMText
 10
5.2293482042
 20
121.3077228511
 30
0.0
 40
3.5
 41
0.0
 71
     1
 72
     1
  1
B
  7
SLDTEXTSTYLE1
 73
     1
 44
1.0
  0
MTEXT
  5
154
330
1F
100
AcDbEntity
  8
RIQUADRO
100
AcDbMText
 10
4.8086000337
 20
187.4611135305
 30
0.0
 40
3.5
 41
0.0
 71
     1
 72
     1
  1
C
  7
SLDTEXTSTYLE1
 73
     1
 44
1.0
  0
MTEXT
  5
155
330
1F
100
AcDbEntity
  8
RIQUADRO
100
AcDbMText
 10
63.5586209519
 20
71.790386974
 30
0.0
 40
3.4395833333
 41
0.0
 71
     2
 72
     1
  1
N.A.
  7
SLDTEXTSTYLE1
 73
     1
 44
1.0
  0
MTEXT
  5
156
330
1F
100
AcDbEntity
  8
RIQUADRO
100
AcDbMText
 10
63.5586209519
 20
63.4024438816
 30
0.0
 40
3.4395833333
 41
0.0
 71
     2
 72
     1
  1
N.A.
  7
SLDTEXTSTYLE1
 73
     1
 44
1.0
  0
MTEXT
  5
157
330
1F
100
AcDbEntity
  8
CARTIGLIO
100
AcDbMText
 10
139.4132032616
 20
73.8234400606
 30
0.0
 40
3.5
 41
0.0
 71
     1
 72
     1
  1
113 g
  7
SLDTEXTSTYLE2
 73
     1
 44
1.0
  0
MTEXT
  5
158
330
1F
100
AcDbEntity
  8
CARTIGLIO
100
AcDbMText
 10
165.0926091224
 20
53.6410057762
 30
0.0
 40
4.5
 41
0.0
 71
     2
 72
     1
  1
CMHOPCCD
  7
SLDTEXTSTYLE1
 73
     1
 44
1.0
  0
MTEXT
  5
159
330
1F
100
AcDbEntity
  8
CARTIGLIO
100
AcDbMText
 10
153.1047881649
 20
35.125654251
 30
0.0
 40
4.5
 41
0.0
 71
     1
 72
     1
  1
50559
  7
SLDTEXTSTYLE1
 73
     1
 44
1.0
  0
MTEXT
  5
15A
330
1F
100
AcDbEntity
  8
CARTIGLIO
100
AcDbMText
 10
96.1560545021
 20
35.7837836347
 30
0.0
 40
2.5
 41
0.0
 71
     2
 72
     1
  1
03/11/2021
  7
SLDTEXTSTYLE1
 73
     1
 44
1.0
  0
MTEXT
  5
15B
330
1F
100
AcDbEntity
  8
CARTIGLIO
100
AcDbMText
 10
96.0129127391
 20
30.2932079499
 30
0.0
 40
2.5
 41
0.0
 71
     2
 72
     1
  1
03/11/2021
  7
SLDTEXTSTYLE1
 73
     1
 44
1.0
  0
MTEXT
  5
15C
330
1F
100
AcDbEntity
  8
CARTIGLIO
100
AcDbMText
 10
117.2193370929
 20
35.7837836347
 30
0.0
 40
2.5
 41
0.0
 71
     2
 72
     1
  1
Rodella
  7
SLDTEXTSTYLE1
 73
     1
 44
1.0
  0
MTEXT
  5
15D
330
1F
100
AcDbEntity
  8
CARTIGLIO
100
AcDbMText
 10
117.0761953299
 20
30.2932079499
 30
0.0
 40
2.5
 41
0.0
 71
     2
 72
     1
  1
Rodella
  7
SLDTEXTSTYLE1
 73
     1
 44
1.0
  0
MTEXT
  5
15E
330
1F
100
AcDbEntity
  8
RIQUADRO
100
AcDbMText
 10
124.5594266148
 20
287.6260340383
 30
0.0
 40
3.5
 41
0.0
 71
     1
 72
     1
  1
3
  7
SLDTEXTSTYLE1
 73
     1
 44
1.0
  0
MTEXT
  5
15F
330
1F
100
AcDbEntity
  8
RIQUADRO
100
AcDbMText
 10
79.2047949065
 20
287.6260340383
 30
0.0
 40
3.5
 41
0.0
 71
     1
 72
     1
  1
2
  7
SLDTEXTSTYLE1
 73
     1
 44
1.0
  0
MTEXT
  5
160
330
1F
100
AcDbEntity
  8
RIQUADRO
100
AcDbMText
 10
27.7259459618
 20
287.6260340383
 30
0.0
 40
3.5
 41
0.0
 71
     1
 72
     1
  1
1
  7
SLDTEXTSTYLE1
 73
     1
 44
1.0
  0
MTEXT
  5
161
330
1F
100
AcDbEntity
  8
RIQUADRO
100
AcDbMText
 10
4.8086000337
 20
254.5788896625
 30
0.0
 40
3.5
 41
0.0
 71
     1
 72
     1
  1
D
  7
SLDTEXTSTYLE1
 73
     1
 44
1.0
  0
MTEXT
  5
162
330
1F
100
AcDbEntity
  8
RIQUADRO
100
AcDbMText
 10
142.5696710898
 20
35.0485820965
 30
0.0
 40
4.4979166667
 41
0.0
 71
     1
 72
     1
  1
DP
  7
SLDTEXTSTYLE1
 73
     1
 44
1.0
  0
MTEXT
  5
163
330
1F
100
AcDbEntity
  8
RIQUADRO
100
AcDbMText
 10
169.8665700449
 20
35.0485823294
 30
0.0
 40
4.4979166667
 41
0.0
 71
     1
 72
     1
  1
-A
  7
SLDTEXTSTYLE1
 73
     1
 44
1.0
  0
MTEXT
  5
164
330
1F
100
AcDbEntity
  8
CARTIGLIO
100
AcDbMText
 10
130.6021382658
 20
67.2685895059
 30
0.0
 40
2.0
 41
0.0
 71
     1
 72
     1
  1
Part No.
  7
SLDTEXTSTYLE1
 73
     1
 44
1.0
  0
MTEXT
  5
165
330
1F
100
AcDbEntity
  8
RIQUADRO
100
AcDbMText
 10
16.7979349133
 20
16.8388113521
 30
0.0
 40
2.1166666667
 41
0.0
 71
     1
 72
     1
  1
all dimensions are in mm
  7
SLDTEXTSTYLE1
 11
-3.491481338843133E-15
 21
1.0
 31
0.0
 73
     1
 44
1.0
  0
MTEXT
  5
166
330
1F
100
AcDbEntity
  8
CARTIGLIO
100
AcDbMText
 10
164.2582914003
 20
64.4178842245
 30
0.0
 40
3.5
 41
0.0
 71
     2
 72
     1
  1
CO50559
  7
SLDTEXTSTYLE1
 73
     1
 44
1.0
  0
INSERT
  5
16E
330
1F
100
AcDbEntity
  8
RIQUADRO
100
AcDbBlockReference
  2
SW_NOTE_0_10
 10
138.8155548423
 20
23.2863942378
 30
0.0
  0
MTEXT
  5
16F
330
1F
100
AcDbEntity
  8
RIQUADRO
100
AcDbMText
 10
87.5117157139
 20
24.6386615893
 30
0.0
 40
2.38125
 41
0.0
 71
     1
 72
     1
  1
03/11/2021
  7
SLDTEXTSTYLE1
 73
     1
 44
1.0
  0
MTEXT
  5
170
330
1F
100
AcDbEntity
  8
RIQUADRO
100
AcDbMText
 10
111.946620774
 20
24.6386615893
 30
0.0
 40
2.38125
 41
0.0
 71
     1
 72
     1
  1
Ccharly
  7
SLDTEXTSTYLE1
 73
     1
 44
1.0
  0
MTEXT
  5
171
330
1F
100
AcDbEntity
  8
CARTIGLIO
100
AcDbMText
 10
23.1242544878
 20
19.2127160786
 30
0.0
 40
2.0
 41
0.0
 71
     1
 72
     1
  1
OPTO ENGINEERING S.r.l. - Mantova, Italy - Tel. +39 0376699111 - www.opto-e.com
  7
SLDTEXTSTYLE1
 73
     1
 44
1.0
  0
LINE
  5
172
330
1F
100
AcDbEntity
  8
0
  6
Continuous
 62
     7
370
    25
100
AcDbLine
 10
140.2756899883
 20
258.1760381088
 30
0.0
 11
140.2756899883
 21
263.1760381088
 31
0.0
  0
LINE
  5
173
330
1F
100
AcDbEntity
  8
0
  6
Continuous
 62
     7
370
    25
100
AcDbLine
 10
90.2942235444
 20
263.1760381088
 30
0.0
 11
90.2942235444
 21
258.1760381088
 31
0.0
  0
LINE
  5
174
330
1F
100
AcDbEntity
  8
0
  6
Continuous
 62
     7
370
    25
100
AcDbLine
 10
184.9567998744
 20
243.1760381088
 30
0.0
 11
184.9567998744
 21
258.1760381088
 31
0.0
  0
LINE
  5
175
330
1F
100
AcDbEntity
  8
0
  6
Continuous
 62
     7
370
    25
100
AcDbLine
 10
45.6131136583
 20
258.1760381088
 30
0.0
 11
45.6131136583
 21
243.1760381088
 31
0.0
  0
LINE
  5
176
330
1F
100
AcDbEntity
  8
0
  6
Continuous
 62
     7
370
    25
100
AcDbLine
 10
132.2849567664
 20
243.1760381088
 30
0.0
 11
132.2849567664
 21
263.1760381088
 31
0.0
  0
LINE
  5
177
330
1F
100
AcDbEntity
  8
0
  6
Continuous
 62
     7
370
    25
100
AcDbLine
 10
132.2849567664
 20
243.1760381088
 30
0.0
 11
98.2849567664
 21
243.1760381088
 31
0.0
  0
LINE
  5
178
330
1F
100
AcDbEntity
  8
0
  6
Continuous
 62
     7
370
    25
100
AcDbLine
 10
98.2849567664
 20
243.1760381088
 30
0.0
 11
98.2849567664
 21
263.1760381088
 31
0.0
  0
LINE
  5
179
330
1F
100
AcDbEntity
  8
0
  6
Continuous
 62
     7
370
    25
100
AcDbLine
 10
132.2849567664
 20
263.1760381088
 30
0.0
 11
98.2849567664
 21
263.1760381088
 31
0.0
  0
CIRCLE
  5
17A
330
1F
100
AcDbEntity
  8
0
  6
Continuous
 62
     7
370
    25
100
AcDbCircle
 10
115.2849567664
 20
259.1760381088
 30
0.0
 40
2.5
  0
CIRCLE
  5
17B
330
1F
100
AcDbEntity
  8
0
  6
Continuous
 62
     7
370
    25
100
AcDbCircle
 10
115.2849567664
 20
247.1760381088
 30
0.0
 40
2.499999999999972
  0
CIRCLE
  5
17C
330
1F
100
AcDbEntity
  8
0
  6
Continuous
 62
     7
370
    25
100
AcDbCircle
 10
102.2849567664
 20
247.1760381088
 30
0.0
 40
1.25
  0
CIRCLE
  5
17D
330
1F
100
AcDbEntity
  8
0
  6
Continuous
 62
     7
370
    25
100
AcDbCircle
 10
128.2849567664
 20
259.1760381088
 30
0.0
 40
1.250000000000057
  0
CIRCLE
  5
17E
330
1F
100
AcDbEntity
  8
0
  6
Continuous
 62
     7
370
    25
100
AcDbCircle
 10
102.2849567664
 20
259.1760381088
 30
0.0
 40
1.250000000000057
  0
CIRCLE
  5
17F
330
1F
100
AcDbEntity
  8
0
  6
Continuous
 62
     7
370
    25
100
AcDbCircle
 10
128.2849567664
 20
247.1760381088
 30
0.0
 40
1.25
  0
LINE
  5
180
330
1F
100
AcDbEntity
  8
0
  6
Continuous
 62
     7
370
    25
100
AcDbLine
 10
86.2419460137
 20
243.1760381088
 30
0.0
 11
86.2419460137
 21
258.1760381088
 31
0.0
  0
LINE
  5
181
330
1F
100
AcDbEntity
  8
0
  6
Continuous
 62
     7
370
    25
100
AcDbLine
 10
86.2419460137
 20
258.1760381088
 30
0.0
 11
90.6747346503
 21
258.1760381088
 31
0.0
  0
LINE
  5
182
330
1F
100
AcDbEntity
  8
0
  6
Continuous
 62
     7
370
    25
100
AcDbLine
 10
90.6747346503
 20
263.1760381088
 30
0.0
 11
90.6747346503
 21
258.1760381088
 31
0.0
  0
LINE
  5
183
330
1F
100
AcDbEntity
  8
0
  6
Continuous
 62
     7
370
    25
100
AcDbLine
 10
90.6747346503
 20
263.1760381088
 30
0.0
 11
98.2849567664
 21
263.1760381088
 31
0.0
  0
LINE
  5
184
330
1F
100
AcDbEntity
  8
0
  6
Continuous
 62
     7
370
    25
100
AcDbLine
 10
98.2849567664
 20
243.1760381088
 30
0.0
 11
86.2419460137
 21
243.1760381088
 31
0.0
  0
LINE
  5
185
330
1F
100
AcDbEntity
  8
0
  6
Continuous
 62
     7
370
    25
100
AcDbLine
 10
144.3279675191
 20
258.1760381088
 30
0.0
 11
144.3279675191
 21
243.1760381088
 31
0.0
  0
LINE
  5
186
330
1F
100
AcDbEntity
  8
0
  6
Continuous
 62
     7
370
    25
100
AcDbLine
 10
139.8951788825
 20
258.1760381088
 30
0.0
 11
139.8951788825
 21
263.1760381088
 31
0.0
  0
LINE
  5
187
330
1F
100
AcDbEntity
  8
0
  6
Continuous
 62
     7
370
    25
100
AcDbLine
 10
139.8951788825
 20
258.1760381088
 30
0.0
 11
144.3279675191
 21
258.1760381088
 31
0.0
  0
LINE
  5
188
330
1F
100
AcDbEntity
  8
0
  6
Continuous
 62
     7
370
    25
100
AcDbLine
 10
132.2849567664
 20
263.1760381088
 30
0.0
 11
139.8951788825
 21
263.1760381088
 31
0.0
  0
LINE
  5
189
330
1F
100
AcDbEntity
  8
0
  6
Continuous
 62
     7
370
    25
100
AcDbLine
 10
144.3279675191
 20
243.1760381088
 30
0.0
 11
132.2849567664
 21
243.1760381088
 31
0.0
  0
LINE
  5
18A
330
1F
100
AcDbEntity
  8
0
  6
Continuous
 62
     7
370
    25
100
AcDbLine
 10
139.8951788825
 20
263.1760381088
 30
0.0
 11
140.2756899883
 21
263.1760381088
 31
0.0
  0
LINE
  5
18B
330
1F
100
AcDbEntity
  8
0
  6
Continuous
 62
     7
370
    25
100
AcDbLine
 10
90.2942235444
 20
263.1760381088
 30
0.0
 11
90.6747346503
 21
263.1760381088
 31
0.0
  0
LINE
  5
18C
330
1F
100
AcDbEntity
  8
0
  6
Continuous
 62
     7
370
    25
100
AcDbLine
 10
184.7120824559
 20
243.1760381088
 30
0.0
 11
184.7120824559
 21
258.1760381088
 31
0.0
  0
LINE
  5
18D
330
1F
100
AcDbEntity
  8
0
  6
Continuous
 62
     7
370
    25
100
AcDbLine
 10
144.3279675191
 20
258.1760381088
 30
0.0
 11
184.7120824559
 21
258.1760381088
 31
0.0
  0
LINE
  5
18E
330
1F
100
AcDbEntity
  8
0
  6
Continuous
 62
     7
370
    25
100
AcDbLine
 10
184.7120824559
 20
243.1760381088
 30
0.0
 11
144.3279675191
 21
243.1760381088
 31
0.0
  0
LINE
  5
18F
330
1F
100
AcDbEntity
  8
0
  6
Continuous
 62
     7
370
    25
100
AcDbLine
 10
45.8578310768
 20
258.1760381088
 30
0.0
 11
45.8578310768
 21
243.1760381088
 31
0.0
  0
LINE
  5
190
330
1F
100
AcDbEntity
  8
0
  6
Continuous
 62
     7
370
    25
100
AcDbLine
 10
45.8578310768
 20
258.1760381088
 30
0.0
 11
86.2419460137
 21
258.1760381088
 31
0.0
  0
LINE
  5
191
330
1F
100
AcDbEntity
  8
0
  6
Continuous
 62
     7
370
    25
100
AcDbLine
 10
86.2419460137
 20
243.1760381088
 30
0.0
 11
45.8578310768
 21
243.1760381088
 31
0.0
  0
LINE
  5
192
330
1F
100
AcDbEntity
  8
0
  6
Continuous
 62
     7
370
    25
100
AcDbLine
 10
184.9567998744
 20
258.1760381088
 30
0.0
 11
184.7120824559
 21
258.1760381088
 31
0.0
  0
LINE
  5
193
330
1F
100
AcDbEntity
  8
0
  6
Continuous
 62
     7
370
    25
100
AcDbLine
 10
184.9567998744
 20
243.1760381088
 30
0.0
 11
184.7120824559
 21
243.1760381088
 31
0.0
  0
LINE
  5
194
330
1F
100
AcDbEntity
  8
0
  6
Continuous
 62
     7
370
    25
100
AcDbLine
 10
45.8578310768
 20
258.1760381088
 30
0.0
 11
45.6131136583
 21
258.1760381088
 31
0.0
  0
LINE
  5
195
330
1F
100
AcDbEntity
  8
0
  6
Continuous
 62
     7
370
    25
100
AcDbLine
 10
45.8578310768
 20
243.1760381088
 30
0.0
 11
45.6131136583
 21
243.1760381088
 31
0.0
  0
DIMENSION
  5
196
330
1F
100
AcDbEntity
  8
RIQUADRO
100
AcDbDimension
  2
_D
 10
24.9819107504
 20
243.1760381088
 30
0.0
 11
24.9819107504
 21
253.2513300489
 31
0.0
 70
   160
  1
<>
 71
     2
 42
-1.0
  3
SLDDIMSTYLE0
100
AcDbAlignedDimension
 13
90.2942235444
 23
263.1760381088
 33
0.0
 14
45.8578310768
 24
243.1760381088
 34
0.0
 50
90.0
100
AcDbRotatedDimension
  0
DIMENSION
  5
1A1
330
1F
100
AcDbEntity
  8
RIQUADRO
100
AcDbDimension
  2
_D_1
 10
37.9215294493
 20
243.1760381088
 30
0.0
 11
37.9215294493
 21
250.3046842066
 31
0.0
 70
   160
  1
<>
 71
     2
 42
-1.0
  3
SLDDIMSTYLE0
100
AcDbAlignedDimension
 13
45.8578310768
 23
258.1760381088
 33
0.0
 14
45.8578310768
 24
243.1760381088
 34
0.0
 50
90.0
100
AcDbRotatedDimension
  0
DIMENSION
  5
1AB
330
1F
100
AcDbEntity
  8
RIQUADRO
100
AcDbDimension
  2
_D_2
 10
132.2849567664
 20
224.6816768821
 30
0.0
 11
114.7905514229
 21
224.6816768821
 31
0.0
 70
   160
  1
<>
 71
     2
 42
-1.0
  3
SLDDIMSTYLE0
100
AcDbAlignedDimension
 13
98.2849567664
 23
243.1760381088
 33
0.0
 14
132.2849567664
 24
243.1760381088
 34
0.0
100
AcDbRotatedDimension
  0
DIMENSION
  5
1B5
330
1F
100
AcDbEntity
  8
RIQUADRO
100
AcDbDimension
  2
_D_3
 10
128.2849567664
 20
232.8066147445
 30
0.0
 11
114.7905514229
 21
232.8066147445
 31
0.0
 70
   160
  1
<>
 71
     2
 42
-1.0
  3
SLDDIMSTYLE0
100
AcDbAlignedDimension
 13
102.2849567664
 23
247.1760381088
 33
0.0
 14
128.2849567664
 24
247.1760381088
 34
0.0
100
AcDbRotatedDimension
  0
DIMENSION
  5
1BF
330
1F
100
AcDbEntity
  8
RIQUADRO
100
AcDbDimension
  2
_D_4
 10
102.2849567664
 20
232.8066147445
 30
0.0
 11
88.3916903144
 21
232.8066147445
 31
0.0
 70
   160
  1
<>
 71
     2
 42
-1.0
  3
SLDDIMSTYLE1
100
AcDbAlignedDimension
 13
98.2849567664
 23
243.1760381088
 33
0.0
 14
102.2849567664
 24
247.1760381088
 34
0.0
100
AcDbRotatedDimension
  0
DIMENSION
  5
1CC
330
1F
100
AcDbEntity
  8
RIQUADRO
100
AcDbDimension
  2
_D_5
 10
148.9066986095
 20
259.1760381088
 30
0.0
 11
148.9066986095
 21
266.6176780566
 31
0.0
 70
   160
  1
<>
 71
     2
 42
-1.0
  3
SLDDIMSTYLE0
100
AcDbAlignedDimension
 13
128.2849567664
 23
247.1760381088
 33
0.0
 14
128.2849567664
 24
259.1760381088
 34
0.0
 50
90.0
100
AcDbRotatedDimension
  0
DIMENSION
  5
1D7
330
1F
100
AcDbEntity
  8
RIQUADRO
100
AcDbDimension
  2
_D_6
 10
148.9066986095
 20
247.1760381088
 30
0.0
 11
148.9066986095
 21
231.320442705
 31
0.0
 70
   160
  1
<>
 71
     2
 42
-1.0
  3
SLDDIMSTYLE1
100
AcDbAlignedDimension
 13
132.2849567664
 23
243.1760381088
 33
0.0
 14
128.2849567664
 24
247.1760381088
 34
0.0
 50
90.0
100
AcDbRotatedDimension
  0
DIMENSION
  5
1E3
330
1F
100
AcDbEntity
  8
RIQUADRO
100
AcDbDimension
  2
_D_7
 10
115.2849567664
 20
271.0532974172
 30
0.0
 11
107.2574776037
 21
271.0532974172
 31
0.0
 70
   160
  1
<>
 71
     2
 42
-1.0
  3
SLDDIMSTYLE1
100
AcDbAlignedDimension
 13
98.2849567664
 23
263.1760381088
 33
0.0
 14
115.2849567664
 24
264.1760381088
 34
0.0
100
AcDbRotatedDimension
  0
DIMENSION
  5
1EF
330
1F
100
AcDbEntity
  8
RIQUADRO
100
AcDbDimension
  2
_D_8
 10
117.4134062568
 20
261.2902052656
 30
0.0
 11
137.1600581863
 21
275.6523508344
 31
0.0
 70
   163
  1
2x  M6
 71
     1
 42
-1.0
  3
SLDDIMSTYLE2
100
AcDbDiametricDimension
 15
113.156507276
 25
257.061870952
 35
0.0
 40
0.0
  0
DIMENSION
  5
1FC
330
1F
100
AcDbEntity
  8
RIQUADRO
100
AcDbDimension
  2
_D_9
 10
101.1876920309
 20
260.1987844606
 30
0.0
 11
79.504329472
 21
275.6523508344
 31
0.0
 70
   163
  1
4x  M3
 71
     1
 42
-1.0
  3
SLDDIMSTYLE2
100
AcDbDiametricDimension
 15
103.3822215019
 25
258.153291757
 35
0.0
 40
0.0
  0
INSERT
  5
213
330
1F
100
AcDbEntity
  8
RIQUADRO
100
AcDbBlockReference
  2
SW_CENTERMARKSYMBOL_0
 10
102.2849567664
 20
259.1760381088
 30
0.0
  0
INSERT
  5
21F
330
1F
100
AcDbEntity
  8
RIQUADRO
100
AcDbBlockReference
  2
SW_CENTERMARKSYMBOL_1
 10
115.2849567664
 20
259.1760381088
 30
0.0
  0
INSERT
  5
22B
330
1F
100
AcDbEntity
  8
RIQUADRO
100
AcDbBlockReference
  2
SW_CENTERMARKSYMBOL_2
 10
128.2849567664
 20
259.1760381088
 30
0.0
  0
INSERT
  5
237
330
1F
100
AcDbEntity
  8
RIQUADRO
100
AcDbBlockReference
  2
SW_CENTERMARKSYMBOL_3
 10
128.2849567664
 20
247.1760381088
 30
0.0
  0
INSERT
  5
243
330
1F
100
AcDbEntity
  8
RIQUADRO
100
AcDbBlockReference
  2
SW_CENTERMARKSYMBOL_4
 10
115.2849567664
 20
247.1760381088
 30
0.0
  0
INSERT
  5
24F
330
1F
100
AcDbEntity
  8
RIQUADRO
100
AcDbBlockReference
  2
SW_CENTERMARKSYMBOL_5
 10
102.2849567664
 20
247.1760381088
 30
0.0
  0
ARC
  5
250
330
1F
100
AcDbEntity
  8
RIQUADRO
100
AcDbCircle
 10
115.2849567664
 20
259.1760381088
 30
0.0
 40
3.000000000000022
100
AcDbArc
 50
255.0
 51
195.0
  0
ARC
  5
251
330
1F
100
AcDbEntity
  8
RIQUADRO
100
AcDbCircle
 10
115.2849567664
 20
247.1760381088
 30
0.0
 40
2.999999999999994
100
AcDbArc
 50
255.0
 51
195.0
  0
ARC
  5
252
330
1F
100
AcDbEntity
  8
RIQUADRO
100
AcDbCircle
 10
102.2849567664
 20
247.1760381088
 30
0.0
 40
1.500000000000007
100
AcDbArc
 50
255.0
 51
195.0
  0
ARC
  5
253
330
1F
100
AcDbEntity
  8
RIQUADRO
100
AcDbCircle
 10
128.2849567664
 20
259.1760381088
 30
0.0
 40
1.500000000000035
100
AcDbArc
 50
255.0
 51
195.0
  0
ARC
  5
254
330
1F
100
AcDbEntity
  8
RIQUADRO
100
AcDbCircle
 10
102.2849567664
 20
259.1760381088
 30
0.0
 40
1.500000000000035
100
AcDbArc
 50
255.0
 51
195.0
  0
ARC
  5
255
330
1F
100
AcDbEntity
  8
RIQUADRO
100
AcDbCircle
 10
128.2849567664
 20
247.1760381088
 30
0.0
 40
1.500000000000011
100
AcDbArc
 50
255.0
 51
195.0
  0
ARC
  5
256
330
1F
100
AcDbEntity
  8
0
  6
Continuous
 62
     7
370
    25
100
AcDbCircle
 10
91.4305478679
 20
123.2442972565
 30
0.0
 40
1.000000000000022
100
AcDbArc
 50
70.7903116748
 51
160.0
  0
ARC
  5
257
330
1F
100
AcDbEntity
  8
0
  6
Continuous
 62
     7
370
    25
100
AcDbCircle
 10
115.2849567664
 20
191.7075514598
 30
0.0
 40
71.5
100
AcDbArc
 50
250.7903116748
 51
289.2096883252
  0
LINE
  5
258
330
1F
100
AcDbEntity
  8
0
  6
Continuous
 62
     7
370
    25
100
AcDbLine
 10
140.0790582857
 20
123.5863173999
 30
0.0
 11
140.2153826091
 21
123.2117693996
 31
0.0
  0
ARC
  5
259
330
1F
100
AcDbEntity
  8
0
  6
Continuous
 62
     7
370
    25
100
AcDbCircle
 10
139.2756899883
 20
122.8697492562
 30
0.0
 40
1.000000000000002
100
AcDbArc
 50
308.2788204196
 51
20.0
  0
LINE
  5
25A
330
1F
100
AcDbEntity
  8
0
  6
Continuous
 62
     7
370
    25
100
AcDbLine
 10
132.2849567664
 20
106.384635429
 30
0.0
 11
132.2849567664
 21
99.7075514598
 31
0.0
  0
LINE
  5
25B
330
1F
100
AcDbEntity
  8
0
  6
Continuous
 62
     7
370
    25
100
AcDbLine
 10
132.2849567664
 20
99.7075514598
 30
0.0
 11
98.2849567664
 21
99.7075514598
 31
0.0
  0
LINE
  5
25C
330
1F
100
AcDbEntity
  8
0
  6
Continuous
 62
     7
370
    25
100
AcDbLine
 10
98.2849567664
 20
99.7075514598
 30
0.0
 11
98.2849567664
 21
106.384635429
 31
0.0
  0
ARC
  5
25D
330
1F
100
AcDbEntity
  8
0
  6
Continuous
 62
     7
370
    25
100
AcDbCircle
 10
91.2942235444
 20
122.8697492562
 30
0.0
 40
1.000000000000002
100
AcDbArc
 50
160.0
 51
231.7211795804
  0
LINE
  5
25E
330
1F
100
AcDbEntity
  8
0
  6
Continuous
 62
     7
370
    25
100
AcDbLine
 10
90.3545309237
 20
123.2117693996
 30
0.0
 11
90.4908552471
 21
123.5863173999
 31
0.0
  0
ARC
  5
25F
330
1F
100
AcDbEntity
  8
0
  6
Continuous
 62
     7
370
    25
100
AcDbCircle
 10
139.1393656649
 20
123.2442972565
 30
0.0
 40
1.000000000000019
100
AcDbArc
 50
20.0
 51
109.2096883252
  0
ARC
  5
260
330
1F
100
AcDbEntity
  8
0
  6
Continuous
 62
     7
370
    25
100
AcDbCircle
 10
152.2849567664
 20
106.384635429
 30
0.0
 40
20.0
100
AcDbArc
 50
128.2788204196
 51
180.0
  0
ARC
  5
261
330
1F
100
AcDbEntity
  8
0
  6
Continuous
 62
     7
370
    25
100
AcDbCircle
 10
78.2849567664
 20
106.384635429
 30
0.0
 40
20.0
100
AcDbArc
 50
0.0
 51
51.7211795804
  0
CIRCLE
  5
262
330
1F
100
AcDbEntity
  8
0
  6
Continuous
 62
     7
370
    25
100
AcDbCircle
 10
179.9567998744
 20
170.6943958423
 30
0.0
 40
1.699999999999989
  0
CIRCLE
  5
263
330
1F
100
AcDbEntity
  8
0
  6
Continuous
 62
     7
370
    25
100
AcDbCircle
 10
115.2849567664
 20
123.7075514598
 30
0.0
 40
1.699999999999989
  0
CIRCLE
  5
264
330
1F
100
AcDbEntity
  8
0
  6
Continuous
 62
     7
370
    25
100
AcDbCircle
 10
50.6131136583
 20
170.6943958423
 30
0.0
 40
1.699999999999989
  0
ARC
  5
265
330
1F
100
AcDbEntity
  8
0
  6
Continuous
 62
     7
370
    25
100
AcDbCircle
 10
115.2849567664
 20
191.7075514598
 30
0.0
 40
73.00000000000004
100
AcDbArc
 50
198.0
 51
246.5561933518
  0
ARC
  5
266
330
1F
100
AcDbEntity
  8
0
  6
Continuous
 62
     7
370
    25
100
AcDbCircle
 10
50.6131136583
 20
170.6943958423
 30
0.0
 40
5.000000000000029
100
AcDbArc
 50
103.7832695211
 51
198.0
  0
ARC
  5
267
330
1F
100
AcDbEntity
  8
0
  6
Continuous
 62
     7
370
    25
100
AcDbCircle
 10
50.6131136583
 20
170.6943958423
 30
0.0
 40
5.000000000000029
100
AcDbArc
 50
18.0
 51
103.7832695211
  0
ARC
  5
268
330
1F
100
AcDbEntity
  8
0
  6
Continuous
 62
     7
370
    25
100
AcDbCircle
 10
115.2849567664
 20
191.7075514598
 30
0.0
 40
63.00000000000004
100
AcDbArc
 50
198.0
 51
342.0
  0
ARC
  5
269
330
1F
100
AcDbEntity
  8
0
  6
Continuous
 62
     7
370
    25
100
AcDbCircle
 10
179.9567998744
 20
170.6943958423
 30
0.0
 40
5.000000000000052
100
AcDbArc
 50
76.2167304789
 51
162.0
  0
ARC
  5
26A
330
1F
100
AcDbEntity
  8
0
  6
Continuous
 62
     7
370
    25
100
AcDbCircle
 10
179.9567998744
 20
170.6943958423
 30
0.0
 40
5.000000000000022
100
AcDbArc
 50
342.0
 51
76.2167304789
  0
ARC
  5
26B
330
1F
100
AcDbEntity
  8
0
  6
Continuous
 62
     7
370
    25
100
AcDbCircle
 10
115.2849567664
 20
191.7075514598
 30
0.0
 40
73.00000000000004
100
AcDbArc
 50
293.4438066482
 51
342.0
  0
ARC
  5
26C
330
1F
100
AcDbEntity
  8
0
  6
Continuous
 62
     7
370
    25
100
AcDbCircle
 10
152.2849567664
 20
106.384635429
 30
0.0
 40
19.99999999999999
100
AcDbArc
 50
113.4438066482
 51
128.2788204196
  0
ARC
  5
26D
330
1F
100
AcDbEntity
  8
0
  6
Continuous
 62
     7
370
    25
100
AcDbCircle
 10
78.2849567664
 20
106.384635429
 30
0.0
 40
20.0
100
AcDbArc
 50
51.7211795804
 51
66.5561933518
  0
LINE
  5
26E
330
1F
100
AcDbEntity
  8
RIQUADRO
100
AcDbLine
 10
50.6131136583
 20
170.6943958423
 30
0.0
 11
115.2849567664
 21
191.7075514598
 31
0.0
  0
LINE
  5
26F
330
1F
100
AcDbEntity
  8
RIQUADRO
100
AcDbLine
 10
115.2849567664
 20
191.7075514598
 30
0.0
 11
115.2849567664
 21
123.7075514598
 31
0.0
  0
LINE
  5
270
330
1F
100
AcDbEntity
  8
RIQUADRO
100
AcDbLine
 10
179.9567998744
 20
170.6943958423
 30
0.0
 11
115.2849567664
 21
191.7075514598
 31
0.0
  0
ARC
  5
271
330
1F
100
AcDbEntity
  8
RIQUADRO
  6
CENTERX2
100
AcDbCircle
 10
115.2849567664
 20
191.7075514598
 30
0.0
 40
67.99999999999987
100
AcDbArc
 50
198.0
 51
342.0
  0
DIMENSION
  5
272
330
1F
100
AcDbEntity
  8
RIQUADRO
100
AcDbDimension
  2
_D_10
 10
115.2849567664
 20
191.7075514598
 30
0.0
 11
155.7939611236
 21
162.5207533111
 31
0.0
 70
   164
  1
<>
 71
     1
 42
-1.0
  3
SLDDIMSTYLE3
100
AcDbRadialDimension
 15
170.45615815
 25
151.9565950199
 35
0.0
 40
0.0
  0
DIMENSION
  5
27A
330
1F
100
AcDbEntity
  8
RIQUADRO
100
AcDbDimension
  2
_D_11
 10
115.2849567664
 20
123.7075514598
 30
0.0
 11
94.4678411081
 21
172.9419637868
 31
0.0
 70
   162
  1
<>
 71
     1
 42
-1.0
  3
SLDDIMSTYLE4
100
AcDb2LineAngularDimension
 13
50.6131136583
 23
170.6943958423
 33
0.0
 14
115.2849567664
 24
191.7075514598
 34
0.0
 15
115.2849567664
 25
191.7075514598
 35
0.0
 16
98.8112373292
 26
169.0334218636
 36
0.0
  0
DIMENSION
  5
283
330
1F
100
AcDbEntity
  8
RIQUADRO
100
AcDbDimension
  2
_D_12
 10
115.2849567664
 20
191.7075514598
 30
0.0
 11
132.4061154238
 21
169.5182407164
 31
0.0
 70
   162
  1
<>
 71
     1
 42
-1.0
  3
SLDDIMSTYLE4
100
AcDb2LineAngularDimension
 13
115.2849567664
 23
191.7075514598
 33
0.0
 14
115.2849567664
 24
123.7075514598
 34
0.0
 15
179.9567998744
 25
170.6943958423
 35
0.0
 16
131.7586762036
 26
169.0334218636
 36
0.0
  0
DIMENSION
  5
28B
330
1F
100
AcDbEntity
  8
RIQUADRO
100
AcDbDimension
  2
_D_13
 10
115.2849567664
 20
191.7075514598
 30
0.0
 11
88.9072700941
 21
151.96359455
 31
0.0
 70
   164
  1
<>
 71
     1
 42
-1.0
  3
SLDDIMSTYLE3
100
AcDbRadialDimension
 15
80.4470696648
 25
139.2163938969
 35
0.0
 40
0.0
  0
DIMENSION
  5
292
330
1F
100
AcDbEntity
  8
RIQUADRO
100
AcDbDimension
  2
_D_14
 10
184.9567998744
 20
82.1301632172
 30
0.0
 11
113.5638048594
 21
82.1301632172
 31
0.0
 70
   160
  1
<>
 71
     2
 42
-1.0
  3
SLDDIMSTYLE0
100
AcDbAlignedDimension
 13
45.6131136583
 23
170.6943958423
 33
0.0
 14
184.9567998744
 24
170.6943958423
 34
0.0
100
AcDbRotatedDimension
  0
DIMENSION
  5
29C
330
1F
100
AcDbEntity
  8
RIQUADRO
100
AcDbDimension
  2
_D_15
 10
192.180860422
 20
191.7075514598
 30
0.0
 11
192.180860422
 21
141.6339377041
 31
0.0
 70
   160
  1
<>
 71
     2
 42
-1.0
  3
SLDDIMSTYLE0
100
AcDbAlignedDimension
 13
132.2849567664
 23
99.7075514598
 33
0.0
 14
120.2849567664
 24
191.7075514598
 34
0.0
 50
90.0
100
AcDbRotatedDimension
  0
DIMENSION
  5
2A6
330
1F
100
AcDbEntity
  8
RIQUADRO
100
AcDbDimension
  2
_D_16
 10
36.5744920771
 20
175.6943958423
 30
0.0
 11
36.5744920771
 21
138.5008291053
 31
0.0
 70
   160
  1
<>
 71
     2
 42
-1.0
  3
SLDDIMSTYLE0
100
AcDbAlignedDimension
 13
98.2849567664
 23
99.7075514598
 33
0.0
 14
50.6131136583
 24
175.6943958423
 34
0.0
 50
90.0
100
AcDbRotatedDimension
  0
DIMENSION
  5
2B0
330
1F
100
AcDbEntity
  8
RIQUADRO
100
AcDbDimension
  2
_D_17
 10
152.2849567664
 20
106.384635429
 30
0.0
 11
144.2666020787
 21
110.8694444052
 31
0.0
 70
   164
  1
<>
 71
     1
 42
-1.0
  3
SLDDIMSTYLE5
100
AcDbRadialDimension
 15
134.8297483148
 25
116.1476113028
 35
0.0
 40
0.0
  0
DIMENSION
  5
2B8
330
1F
100
AcDbEntity
  8
RIQUADRO
100
AcDbDimension
  2
_D_18
 10
78.2849567664
 20
106.384635429
 30
0.0
 11
86.5991750161
 21
110.8694444052
 31
0.0
 70
   164
  1
<>
 71
     1
 42
-1.0
  3
SLDDIMSTYLE5
100
AcDbRadialDimension
 15
95.8873766692
 25
115.8796242949
 35
0.0
 40
0.0
  0
DIMENSION
  5
2BF
330
1F
100
AcDbEntity
  8
RIQUADRO
100
AcDbDimension
  2
_D_19
 10
132.2849567664
 20
91.6271668022
 30
0.0
 11
113.5638048594
 21
91.6271668022
 31
0.0
 70
   160
  1
<>
 71
     2
 42
-1.0
  3
SLDDIMSTYLE0
100
AcDbAlignedDimension
 13
98.2849567664
 23
99.7075514598
 33
0.0
 14
132.2849567664
 24
99.7075514598
 34
0.0
100
AcDbRotatedDimension
  0
DIMENSION
  5
2C9
330
1F
100
AcDbEntity
  8
RIQUADRO
100
AcDbDimension
  2
_D_20
 10
153.0148240787
 20
129.213894881
 30
0.0
 11
143.7162894073
 21
144.6154712403
 31
0.0
 70
   160
  1
<>
 71
     2
 42
-1.0
  3
SLDDIMSTYLE0
100
AcDbAlignedDimension
 13
147.8463491044
 23
137.7746697548
 33
0.0
 14
153.0148240787
 24
129.213894881
 34
0.0
 50
-58.8789755721
100
AcDbRotatedDimension
  0
INSERT
  5
2DD
330
1F
100
AcDbEntity
  8
RIQUADRO
100
AcDbBlockReference
  2
SW_CENTERMARKSYMBOL_6
 10
50.6131136583
 20
170.6943958423
 30
0.0
  0
INSERT
  5
2E9
330
1F
100
AcDbEntity
  8
RIQUADRO
100
AcDbBlockReference
  2
SW_CENTERMARKSYMBOL_7
 10
115.2849567664
 20
123.7075514598
 30
0.0
  0
INSERT
  5
2F5
330
1F
100
AcDbEntity
  8
RIQUADRO
100
AcDbBlockReference
  2
SW_CENTERMARKSYMBOL_8
 10
179.9567998744
 20
170.6943958423
 30
0.0
  0
INSERT
  5
2FD
330
1F
100
AcDbEntity
  8
RIQUADRO
100
AcDbBlockReference
  2
SW_CENTERMARKSYMBOL_9
 10
115.2849567664
 20
191.7075514598
 30
0.0
  0
LINE
  5
2FE
330
1F
100
AcDbEntity
  8
0
  6
CENTER
 62
     7
370
    18
100
AcDbLine
 10
50.6131136583
 20
184.8128171682
 30
0.0
 11
50.6131136583
 21
133.1220915164
 31
0.0
  0
LINE
  5
2FF
330
1F
100
AcDbEntity
  8
0
  6
Continuous
 62
     7
370
    18
100
AcDbLine
 10
63.3131136583
 20
182.8128171682
 30
0.0
 11
50.6131136583
 21
182.8128171682
 31
0.0
  0
SOLID
  5
300
330
1F
100
AcDbEntity
  8
0
  6
Continuous
 62
     7
370
    18
100
AcDbTrace
 10
50.6131136583
 20
182.8128171682
 30
0.0
 11
56.9631136583
 21
181.7968171682
 31
0.0
 12
56.9631136583
 22
183.8288171682
 32
0.0
 13
56.9631136583
 23
183.8288171682
 33
0.0
  0
LINE
  5
301
330
1F
100
AcDbEntity
  8
0
  6
Continuous
 62
     7
370
    18
100
AcDbLine
 10
63.3131136583
 20
135.1220915164
 30
0.0
 11
50.6131136583
 21
135.1220915164
 31
0.0
  0
SOLID
  5
302
330
1F
100
AcDbEntity
  8
0
  6
Continuous
 62
     7
370
    18
100
AcDbTrace
 10
50.6131136583
 20
135.1220915164
 30
0.0
 11
56.9631136583
 21
134.1060915164
 31
0.0
 12
56.9631136583
 22
136.1380915164
 32
0.0
 13
56.9631136583
 23
136.1380915164
 33
0.0
  0
MTEXT
  5
303
330
1F
100
AcDbEntity
  8
0
  6
Continuous
 62
     7
100
AcDbMText
 10
59.8630618497
 20
188.3731977983
 30
0.0
 40
3.5
 41
0.0
 71
     1
 72
     1
  1
A
  7
SLDTEXTSTYLE1
 73
     1
 44
1.0
  0
MTEXT
  5
304
330
1F
100
AcDbEntity
  8
0
  6
Continuous
 62
     7
100
AcDbMText
 10
59.8630618497
 20
133.2704847665
 30
0.0
 40
3.5
 41
0.0
 71
     1
 72
     1
  1
A
  7
SLDTEXTSTYLE1
 73
     1
 44
1.0
  0
LINE
  5
305
330
1F
100
AcDbEntity
  8
0
  6
Continuous
 62
     7
370
    25
100
AcDbLine
 10
28.4837402115
 20
204.9670094999
 30
0.0
 11
28.4837402115
 21
193.8193808825
 31
0.0
  0
LINE
  5
306
330
1F
100
AcDbEntity
  8
0
  6
Continuous
 62
     7
370
    25
100
AcDbLine
 10
28.4837402115
 20
204.9670094999
 30
0.0
 11
38.4837402115
 21
204.9670094999
 31
0.0
  0
LINE
  5
307
330
1F
100
AcDbEntity
  8
0
  6
Continuous
 62
     7
370
    25
100
AcDbLine
 10
38.4837402115
 20
204.9670094999
 30
0.0
 11
38.4837402115
 21
203.4170094999
 31
0.0
  0
LINE
  5
308
330
1F
100
AcDbEntity
  8
0
  6
Continuous
 62
     7
370
    25
100
AcDbLine
 10
38.4837402115
 20
203.4170094999
 30
0.0
 11
43.4837402115
 21
203.4170094999
 31
0.0
  0
LINE
  5
309
330
1F
100
AcDbEntity
  8
0
  6
Continuous
 62
     7
370
    25
100
AcDbLine
 10
43.4837402115
 20
193.8193808825
 30
0.0
 11
43.4837402115
 21
203.4170094999
 31
0.0
  0
LINE
  5
30A
330
1F
100
AcDbEntity
  8
0
  6
Continuous
 62
     7
370
    25
100
AcDbLine
 10
43.4837402115
 20
193.8193808825
 30
0.0
 11
28.4837402115
 21
193.8193808825
 31
0.0
  0
LINE
  5
30B
330
1F
100
AcDbEntity
  8
0
  6
Continuous
 62
     7
370
    25
100
AcDbLine
 10
43.4837402115
 20
211.6670094999
 30
0.0
 11
28.4837402115
 21
211.6670094999
 31
0.0
  0
LINE
  5
30C
330
1F
100
AcDbEntity
  8
0
  6
Continuous
 62
     7
370
    25
100
AcDbLine
 10
43.4837402115
 20
209.9170094999
 30
0.0
 11
38.4837402115
 21
209.9170094999
 31
0.0
  0
LINE
  5
30D
330
1F
100
AcDbEntity
  8
0
  6
Continuous
 62
     7
370
    25
100
AcDbLine
 10
43.4837402115
 20
203.4170094999
 30
0.0
 11
43.4837402115
 21
209.9170094999
 31
0.0
  0
LINE
  5
30E
330
1F
100
AcDbEntity
  8
0
  6
Continuous
 62
     7
370
    25
100
AcDbLine
 10
38.4837402115
 20
209.9170094999
 30
0.0
 11
38.4837402115
 21
208.3670094999
 31
0.0
  0
LINE
  5
30F
330
1F
100
AcDbEntity
  8
0
  6
Continuous
 62
     7
370
    25
100
AcDbLine
 10
38.4837402115
 20
208.3670094999
 30
0.0
 11
28.4837402115
 21
208.3670094999
 31
0.0
  0
LINE
  5
310
330
1F
100
AcDbEntity
  8
0
  6
Continuous
 62
     7
370
    25
100
AcDbLine
 10
28.4837402115
 20
211.6670094999
 30
0.0
 11
28.4837402115
 21
208.3670094999
 31
0.0
  0
LINE
  5
311
330
1F
100
AcDbEntity
  8
0
  6
Continuous
 62
     7
370
    25
100
AcDbLine
 10
43.4837402115
 20
209.9170094999
 30
0.0
 11
43.4837402115
 21
211.6670094999
 31
0.0
  0
LINE
  5
312
330
1F
100
AcDbEntity
  8
0
  6
Continuous
 62
     7
370
    25
100
AcDbLine
 10
28.4837402115
 20
204.9670094999
 30
0.0
 11
28.4837402115
 21
208.3670094999
 31
0.0
  0
LINE
  5
313
330
1F
100
AcDbEntity
  8
0
  6
Continuous
 62
     7
370
    25
100
AcDbLine
 10
38.4837402115
 20
204.9670094999
 30
0.0
 11
38.4837402115
 21
208.3670094999
 31
0.0
  0
HATCH
  5
314
330
1F
100
AcDbEntity
  8
RIQUADRO
  6
Continuous
370
    18
100
AcDbHatch
 10
0.0
 20
0.0
 30
0.0
210
0.0
220
0.0
230
1.0
  2
ANSI38
 70
     0
 71
     0
 91
        1
 92
        0
 93
        6
 72
     1
 10
28.48374021151964
 20
193.8193808824641
 11
43.48374021151965
 21
193.8193808824642
 72
     1
 10
43.48374021151965
 20
193.8193808824642
 11
43.48374021151961
 21
203.4170094999072
 72
     1
 10
43.48374021151961
 20
203.4170094999072
 11
38.48374021151961
 21
203.4170094999072
 72
     1
 10
38.48374021151961
 20
203.4170094999072
 11
38.4837402115196
 21
204.9670094999072
 72
     1
 10
38.4837402115196
 20
204.9670094999072
 11
28.4837402115196
 21
204.9670094999072
 72
     1
 10
28.4837402115196
 20
204.9670094999072
 11
28.48374021151964
 21
193.8193808824641
 97
        0
 75
     0
 76
     1
 52
0.0
 41
1.0
 77
     0
 78
     2
 53
45.0
 43
0.0
 44
0.0
 45
-2.245064030267288
 46
2.245064030267288
 79
     0
 53
135.0
 43
0.0
 44
0.0
 45
-6.735192090801864
 46
2.245064030267289
 79
     2
 49
7.9375
 49
-4.7625
 98
        1
 10
0.0
 20
0.0
  0
HATCH
  5
315
330
1F
100
AcDbEntity
  8
RIQUADRO
  6
Continuous
370
    18
100
AcDbHatch
 10
0.0
 20
0.0
 30
0.0
210
0.0
220
0.0
230
1.0
  2
ANSI38
 70
     0
 71
     0
 91
        1
 92
        0
 93
        6
 72
     1
 10
38.48374021151958
 20
209.9170094999072
 11
43.48374021151959
 21
209.9170094999072
 72
     1
 10
43.48374021151959
 20
209.9170094999072
 11
43.48374021151958
 21
211.6670094999063
 72
     1
 10
43.48374021151958
 20
211.6670094999063
 11
28.48374021151958
 21
211.6670094999062
 72
     1
 10
28.48374021151958
 20
211.6670094999062
 11
28.48374021151959
 21
208.3670094999072
 72
     1
 10
28.48374021151959
 20
208.3670094999072
 11
38.48374021151959
 21
208.3670094999072
 72
     1
 10
38.48374021151959
 20
208.3670094999072
 11
38.48374021151958
 21
209.9170094999072
 97
        0
 75
     0
 76
     1
 52
0.0
 41
1.0
 77
     0
 78
     2
 53
45.0
 43
0.0
 44
0.0
 45
-2.245064030267288
 46
2.245064030267288
 79
     0
 53
135.0
 43
0.0
 44
0.0
 45
-6.735192090801864
 46
2.245064030267289
 79
     2
 49
7.9375
 49
-4.7625
 98
        1
 10
0.0
 20
0.0
  0
DIMENSION
  5
316
330
1F
100
AcDbEntity
  8
RIQUADRO
100
AcDbDimension
  2
_D_21
 10
38.4837402115
 20
220.1898834306
 30
0.0
 11
30.9982084989
 21
220.1898834306
 31
0.0
 70
   160
  1
<>
 71
     2
 42
-1.0
  3
SLDDIMSTYLE1
100
AcDbAlignedDimension
 13
43.4837402115
 23
211.6670094999
 33
0.0
 14
38.4837402115
 24
209.9170094999
 34
0.0
 50
0.0
100
AcDbRotatedDimension
  0
DIMENSION
  5
322
330
1F
100
AcDbEntity
  8
RIQUADRO
100
AcDbDimension
  2
_D_22
 10
22.5124361288
 20
204.9670094999
 30
0.0
 11
22.5124361288
 21
223.9702009604
 31
0.0
 70
   160
  1
3x %%c <>
 71
     2
 42
-1.0
  3
SLDDIMSTYLE6
100
AcDbAlignedDimension
 13
28.4837402115
 23
208.3670094999
 33
0.0
 14
28.4837402115
 24
204.9670094999
 34
0.0
 50
90.0
100
AcDbRotatedDimension
  0
DIMENSION
  5
331
330
1F
100
AcDbEntity
  8
RIQUADRO
100
AcDbDimension
  2
_D_23
 10
56.9958793963
 20
209.9170094999
 30
0.0
 11
56.9958793963
 21
219.0386567983
 31
0.0
 70
   160
  1
%%c<>
 71
     2
 42
-1.0
  3
SLDDIMSTYLE6
100
AcDbAlignedDimension
 13
43.4837402115
 23
203.4170094999
 33
0.0
 14
43.4837402115
 24
209.9170094999
 34
0.0
 50
90.0
100
AcDbRotatedDimension
  0
MTEXT
  5
33E
330
1F
100
AcDbEntity
  8
RIQUADRO
100
AcDbMText
 10
20.824500891
 20
194.5387610162
 30
0.0
 40
3.5
 41
0.0
 71
     2
 72
     1
  1
A-A
  7
SLDTEXTSTYLE1
 73
     1
 44
1.0
  0
LINE
  5
33F
330
1F
100
AcDbEntity
  8
RIQUADRO
  6
CENTERX2
370
    18
100
AcDbLine
 10
38.4837402115
 20
206.6670094999
 30
0.0
 11
45.4837402115
 21
206.6670094999
 31
0.0
  0
LINE
  5
340
330
1F
100
AcDbEntity
  8
RIQUADRO
  6
CENTERX2
370
    18
100
AcDbLine
 10
26.4837402115
 20
206.6670094999
 30
0.0
 11
38.4837402115
 21
206.6670094999
 31
0.0
  0
ENDSEC
  0
SECTION
  2
OBJECTS
  0
DICTIONARY
  5
C
330
0
100
AcDbDictionary
281
     1
  3
ACAD_GROUP
350
D
  3
ACAD_LAYOUT
350
1A
  3
ACAD_MLINESTYLE
350
17
  3
ACAD_PLOTSETTINGS
350
19
  3
ACAD_PLOTSTYLENAME
350
E
  3
ACAD_SCALELIST
350
47
  3
DWGPROPS
350
341
  0
DICTIONARY
  5
D
102
{ACAD_REACTORS
330
C
102
}
330
C
100
AcDbDictionary
281
     1
  0
DICTIONARY
  5
1A
102
{ACAD_REACTORS
330
C
102
}
330
C
100
AcDbDictionary
281
     1
  3
Layout1
350
1E
  3
Layout2
350
26
  3
Model
350
22
  0
DICTIONARY
  5
17
102
{ACAD_REACTORS
330
C
102
}
330
C
100
AcDbDictionary
281
     1
  3
Standard
350
18
  0
DICTIONARY
  5
19
102
{ACAD_REACTORS
330
C
102
}
330
C
100
AcDbDictionary
281
     1
  0
ACDBDICTIONARYWDFLT
  5
E
102
{ACAD_REACTORS
330
C
102
}
330
C
100
AcDbDictionary
281
     1
  3
Normal
350
F
100
AcDbDictionaryWithDefault
340
F
  0
DICTIONARY
  5
47
102
{ACAD_REACTORS
330
C
102
}
330
C
100
AcDbDictionary
281
     1
  3
A0
350
48
  3
A1
350
49
  3
A2
350
4A
  3
A3
350
4B
  3
A4
350
4C
  3
A5
350
4D
  3
A6
350
4E
  3
A7
350
4F
  3
A8
350
50
  3
A9
350
51
  3
B0
350
52
  3
B1
350
53
  3
B2
350
54
  3
B3
350
55
  3
B4
350
56
  3
B5
350
57
  3
B6
350
58
  3
B7
350
59
  3
B8
350
5A
  3
B9
350
5B
  3
C0
350
5C
  3
C1
350
5D
  3
C2
350
5E
  3
C3
350
5F
  3
C4
350
60
  3
C5
350
61
  3
C6
350
62
  3
C7
350
63
  3
C8
350
64
  3
C9
350
65
  3
D0
350
66
  3
D1
350
67
  3
D2
350
68
  0
XRECORD
  5
341
102
{ACAD_REACTORS
330
C
102
}
330
C
100
AcDbXrecord
280
     1
  1
DWGPROPS COOKIE
  2

  3

  4

  6

  7

  8
ccharly
  9

300
=
301
=
302
=
303
=
304
=
305
=
306
=
307
=
308
=
309
=
 40
0.0
 41
2459522.624011782
 42
2459522.624016343
  1

 90
        0
  0
LAYOUT
  5
1E
102
{ACAD_REACTORS
330
1A
102
}
330
1A
100
AcDbPlotSettings
  1

  2
none_device
  4

  6

 40
0.0
 41
0.0
 42
0.0
 43
0.0
 44
0.0
 45
0.0
 46
0.0
 47
0.0
 48
0.0
 49
0.0
140
0.0
141
0.0
142
1.0
143
1.0
 70
   688
 72
     1
 73
     0
 74
     5
  7

 75
    16
147
1.0
148
0.0
149
0.0
100
AcDbLayout
  1
Layout1
 70
     1
 71
     1
 10
0.0
 20
0.0
 11
420.0
 21
297.0
 12
0.0
 22
0.0
 32
0.0
 14
1.0000000000E+20
 24
1.0000000000E+20
 34
1.0000000000E+20
 15
-1.0000000000E+20
 25
-1.0000000000E+20
 35
-1.0000000000E+20
146
0.0
 13
0.0
 23
0.0
 33
0.0
 16
1.0
 26
0.0
 36
0.0
 17
0.0
 27
1.0
 37
0.0
 76
     0
330
1B
  0
LAYOUT
  5
26
102
{ACAD_REACTORS
330
1A
102
}
330
1A
100
AcDbPlotSettings
  1

  2
none_device
  4

  6

 40
0.0
 41
0.0
 42
0.0
 43
0.0
 44
0.0
 45
0.0
 46
0.0
 47
0.0
 48
0.0
 49
0.0
140
0.0
141
0.0
142
1.0
143
1.0
 70
   688
 72
     1
 73
     0
 74
     5
  7

 75
    16
147
1.0
148
0.0
149
0.0
100
AcDbLayout
  1
Layout2
 70
     1
 71
     2
 10
0.0
 20
0.0
 11
0.0
 21
0.0
 12
0.0
 22
0.0
 32
0.0
 14
0.0
 24
0.0
 34
0.0
 15
0.0
 25
0.0
 35
0.0
146
0.0
 13
0.0
 23
0.0
 33
0.0
 16
1.0
 26
0.0
 36
0.0
 17
0.0
 27
1.0
 37
0.0
 76
     0
330
23
  0
LAYOUT
  5
22
102
{ACAD_REACTORS
330
1A
102
}
330
1A
100
AcDbPlotSettings
  1

  2
none_device
  4
Letter_(8.50_x_11.00_Inches)
  6

 40
6.35
 41
6.35
 42
6.35000508
 43
6.35000508
 44
215.9
 45
279.4
 46
0.0
 47
0.0
 48
0.0
 49
0.0
140
0.0
141
0.0
142
1.0
143
1.0
 70
  1712
 72
     1
 73
     0
 74
     0
  7

 75
     0
147
1.0
148
0.0
149
0.0
100
AcDbLayout
  1
Model
 70
     1
 71
     0
 10
0.0
 20
0.0
 11
210.0
 21
297.0
 12
0.0
 22
0.0
 32
0.0
 14
0.0
 24
0.0
 34
0.0
 15
210.0
 25
297.0
 35
0.0
146
0.0
 13
0.0
 23
0.0
 33
0.0
 16
1.0
 26
0.0
 36
0.0
 17
0.0
 27
1.0
 37
0.0
 76
     0
330
1F
331
29
  0
MLINESTYLE
  5
18
102
{ACAD_REACTORS
330
17
102
}
330
17
100
AcDbMlineStyle
  2
Standard
 70
     0
  3

 62
   256
 51
90.0
 52
90.0
 71
     2
 49
0.5
 62
   256
  6
BYLAYER
 49
-0.5
 62
   256
  6
BYLAYER
  0
ACDBPLACEHOLDER
  5
F
102
{ACAD_REACTORS
330
E
102
}
330
E
  0
SCALE
  5
48
102
{ACAD_REACTORS
330
47
102
}
330
47
100
AcDbScale
 70
     0
300
1:1
140
1.0
141
1.0
290
     1
  0
SCALE
  5
49
102
{ACAD_REACTORS
330
47
102
}
330
47
100
AcDbScale
 70
     0
300
1:2
140
1.0
141
2.0
290
     0
  0
SCALE
  5
4A
102
{ACAD_REACTORS
330
47
102
}
330
47
100
AcDbScale
 70
     0
300
1:4
140
1.0
141
4.0
290
     0
  0
SCALE
  5
4B
102
{ACAD_REACTORS
330
47
102
}
330
47
100
AcDbScale
 70
     0
300
1:5
140
1.0
141
5.0
290
     0
  0
SCALE
  5
4C
102
{ACAD_REACTORS
330
47
102
}
330
47
100
AcDbScale
 70
     0
300
1:8
140
1.0
141
8.0
290
     0
  0
SCALE
  5
4D
102
{ACAD_REACTORS
330
47
102
}
330
47
100
AcDbScale
 70
     0
300
1:10
140
1.0
141
10.0
290
     0
  0
SCALE
  5
4E
102
{ACAD_REACTORS
330
47
102
}
330
47
100
AcDbScale
 70
     0
300
1:16
140
1.0
141
16.0
290
     0
  0
SCALE
  5
4F
102
{ACAD_REACTORS
330
47
102
}
330
47
100
AcDbScale
 70
     0
300
1:20
140
1.0
141
20.0
290
     0
  0
SCALE
  5
50
102
{ACAD_REACTORS
330
47
102
}
330
47
100
AcDbScale
 70
     0
300
1:30
140
1.0
141
30.0
290
     0
  0
SCALE
  5
51
102
{ACAD_REACTORS
330
47
102
}
330
47
100
AcDbScale
 70
     0
300
1:40
140
1.0
141
40.0
290
     0
  0
SCALE
  5
52
102
{ACAD_REACTORS
330
47
102
}
330
47
100
AcDbScale
 70
     0
300
1:50
140
1.0
141
50.0
290
     0
  0
SCALE
  5
53
102
{ACAD_REACTORS
330
47
102
}
330
47
100
AcDbScale
 70
     0
300
1:100
140
1.0
141
100.0
290
     0
  0
SCALE
  5
54
102
{ACAD_REACTORS
330
47
102
}
330
47
100
AcDbScale
 70
     0
300
2:1
140
2.0
141
1.0
290
     0
  0
SCALE
  5
55
102
{ACAD_REACTORS
330
47
102
}
330
47
100
AcDbScale
 70
     0
300
4:1
140
4.0
141
1.0
290
     0
  0
SCALE
  5
56
102
{ACAD_REACTORS
330
47
102
}
330
47
100
AcDbScale
 70
     0
300
8:1
140
8.0
141
1.0
290
     0
  0
SCALE
  5
57
102
{ACAD_REACTORS
330
47
102
}
330
47
100
AcDbScale
 70
     0
300
10:1
140
10.0
141
1.0
290
     0
  0
SCALE
  5
58
102
{ACAD_REACTORS
330
47
102
}
330
47
100
AcDbScale
 70
     0
300
100:1
140
100.0
141
1.0
290
     0
  0
SCALE
  5
59
102
{ACAD_REACTORS
330
47
102
}
330
47
100
AcDbScale
 70
     0
300
1/128" = 1'-0"
140
0.0078125
141
12.0
290
     0
  0
SCALE
  5
5A
102
{ACAD_REACTORS
330
47
102
}
330
47
100
AcDbScale
 70
     0
300
1/64" = 1'-0"
140
0.015625
141
12.0
290
     0
  0
SCALE
  5
5B
102
{ACAD_REACTORS
330
47
102
}
330
47
100
AcDbScale
 70
     0
300
1/32" = 1'-0"
140
0.03125
141
12.0
290
     0
  0
SCALE
  5
5C
102
{ACAD_REACTORS
330
47
102
}
330
47
100
AcDbScale
 70
     0
300
1/16" = 1'-0"
140
0.0625
141
12.0
290
     0
  0
SCALE
  5
5D
102
{ACAD_REACTORS
330
47
102
}
330
47
100
AcDbScale
 70
     0
300
3/32" = 1'-0"
140
0.09375
141
12.0
290
     0
  0
SCALE
  5
5E
102
{ACAD_REACTORS
330
47
102
}
330
47
100
AcDbScale
 70
     0
300
1/8" = 1'-0"
140
0.125
141
12.0
290
     0
  0
SCALE
  5
5F
102
{ACAD_REACTORS
330
47
102
}
330
47
100
AcDbScale
 70
     0
300
3/16" = 1'-0"
140
0.1875
141
12.0
290
     0
  0
SCALE
  5
60
102
{ACAD_REACTORS
330
47
102
}
330
47
100
AcDbScale
 70
     0
300
1/4" = 1'-0"
140
0.25
141
12.0
290
     0
  0
SCALE
  5
61
102
{ACAD_REACTORS
330
47
102
}
330
47
100
AcDbScale
 70
     0
300
3/8" = 1'-0"
140
0.375
141
12.0
290
     0
  0
SCALE
  5
62
102
{ACAD_REACTORS
330
47
102
}
330
47
100
AcDbScale
 70
     0
300
1/2" = 1'-0"
140
0.5
141
12.0
290
     0
  0
SCALE
  5
63
102
{ACAD_REACTORS
330
47
102
}
330
47
100
AcDbScale
 70
     0
300
3/4" = 1'-0"
140
0.75
141
12.0
290
     0
  0
SCALE
  5
64
102
{ACAD_REACTORS
330
47
102
}
330
47
100
AcDbScale
 70
     0
300
1" = 1'-0"
140
1.0
141
12.0
290
     0
  0
SCALE
  5
65
102
{ACAD_REACTORS
330
47
102
}
330
47
100
AcDbScale
 70
     0
300
1-1/2" = 1'-0"
140
1.5
141
12.0
290
     0
  0
SCALE
  5
66
102
{ACAD_REACTORS
330
47
102
}
330
47
100
AcDbScale
 70
     0
300
3" = 1'-0"
140
3.0
141
12.0
290
     0
  0
SCALE
  5
67
102
{ACAD_REACTORS
330
47
102
}
330
47
100
AcDbScale
 70
     0
300
6" = 1'-0"
140
6.0
141
12.0
290
     0
  0
SCALE
  5
68
102
{ACAD_REACTORS
330
47
102
}
330
47
100
AcDbScale
 70
     0
300
1'-0" = 1'-0"
140
12.0
141
12.0
290
     0
  0
ENDSEC
  0
EOF
